EASY
BASIC
(185.0){1},,
{4}2,2,1/8,,
{4}2,2,1/8,,
{4}7,7,1/8,,
{4}7,7,1/8,,
{4}2,2,1/8,,
{4}7,7,1/8,,
{2}1/2,7/8,
{2}5/6,3/4,
{4}3,3,2/4,,
{1}3h[2:1]/4h[2:1],
{4}6,6,5/7,,
{1}5h[2:1]/6h[2:1],
{4}3,5,4,,
{4}6,4,5,,
{4}3/4,3/4,5/6,5/6,
{4}4/5,4/5,3/6,,
{1}2-5[4:3],,
{1}7-4[4:3],,
{1}3-8[4:3],,
{1}6-1[4:3],,
{2}1,1,
{2}2,2,
{2}3,3,
{2}4,4/5,
{2}5,5,
{2}6,6,
{2}7,7,
{2}8,1/8,
{1}2h[2:3]/7h[2:3],
{4},,,1b/8b,
{4}1,1,2,2,
{4}3,3,3/4,,
{4}5,5,6,6,
{4}7,7,7/8,,
{4}8,8,7,7,
{4}6,6,5/6,,
{4}4,4,3,3,
{4}2,2,1/2,,
{4}2,2,1,1,
{4}8,8,7/8,,
{4}6,6,5,5,
{4}4,4,3/4,,
{4}3,3,4,4,
{4}5,5,5/6,,
{4}7,7,8,8,
{4}1,1,1/2,,
{1}2-5[4:3],,
{1}7-4[4:3],,
{4}4,4,3/5,,
{4}5,5,4/6,,
{4}4,4,5,5,
{1}3/6,
{4}4,4,4,,
{4}3,3,3,,
{1}2h[2:1],
{1}1h[2:1]/2h[2:1],
{4}8,8,8,,
{4}7,7,7,,
{1}6h[2:1],
{1}5h[2:1]/6h[2:1],
{4}5,5,5,,
{4}6,6,6,,
{4}7,7,7,,
{4}8,8,8,,
{2}1/2,1/2,
{2}3/4,3/4,
{2}5/6,5/6,
{1}7b/8b,
{1}7-3[4:3],,
{1}1h[1:1],,
{1}2-6[4:3],,
{1}8h[1:1],,
{1}8-4[4:3],,
{1}1h[1:1]/2h[1:1],,
{1}1-5[4:3],,
{1}7h[1:1]/8h[1:1],
{4},,,1b/8b,
{4}1,1,2,2,
{4}3,3,4/5,4/5,
{4}5,5,6,6,
{4}7,7,1/8,,
{4}8,8,7,7,
{4}6,6,4/5,4/5,
{4}4,4,3,3,
{4}2,2,1/8,,
{4}2,1,2,1,
{4}2,1,1/2,,
{4}3,4,3,4,
{4}3,4,3/4,,
{4}6,5,6,5,
{4}6,5,5/6,,
{4}7,8,7,8,
{4}7,8,7/8,,
{1}1h[4:3]/8h[4:3],
{1}2b/7b,
E
ADVANCED
(185.0){1},,
{4}4,4,3,3,
{4}2,2,1/2,,
{4}5,5,6,6,
{4}7,7,7/8,,
{4}3,4,3,4,
{4}6,5,5/6,,
{2}1/2,7/8,
{2}4/5,2b/7b,
{4}3,3,3/4,,
{4}2,2,1/2,,
{4}6,6,5/6,,
{4}7,7,7/8,,
{2}3/4,2/5,
{2}5/6,4/7,
{2}1/8,2/7,
{1}2-6[4:1],
{1}5h[1:1],
{1}6h[1:1],
{1}7h[1:1],
{2}8,8,
{1}1h[1:1],
{1}2h[1:1],
{1}3h[1:1],
{2}4,4,
{1}5h[1:1],
{1}4h[1:1],
{1}3h[1:1],
{2}2,1/2,
{1}1h[1:1],
{1}8h[1:1],
{1}7h[1:1],
{2}6,5/6,
{1}1-4[4:1]/8-5[4:1],
{4}4/5,3/6,2/7,1b/8b,
{4}3,3,3/4,3/4,
{4}6,6,5/6,,
{4}2,2,1/2,1/2,
{4}7,7,7/8,,
{4}6,5,3/4,3/4,
{4}2,1,7/8,,
{4}6,5,3/4,3/4,
{4}1h[2:1]/2h[2:1],,,7b/8b,
{4}6,5,6,4/7,
{4}3,4,3,2/5,
{4}1,8,1,2/7,
{1}7-4[4:1]/8-3[4:1],
{4}3,4,3/4,2/5,
{4}6,5,5/6,4/7,
{4}8,1,1/8,2/7,
{1}1-6[4:1]/2-5[4:1],
{2}4h[2:1],3,
{2}5h[2:1],6,
{2}1h[2:1],2,
{2}8h[2:1],7,
{1}7-4[4:1]/8-3[4:1],
{1}1-6[4:1]/2-5[4:1],
{1}1-4[4:1]/8-5[4:1],
{4}3/4,5/6,3/4,5/6,
{4}1/2,3/8,4/7,,
{4}7/8,1/6,2/5,,
{1}1^6[8:3],
{1}8^3[8:3],
{4}3/4,2/5,1/6,,
{4}5/6,4/7,3/8,,
{1}1^4[8:3],
{1}8^5[8:3],
{4}3,4,3,3/4,
{4}2,1,1/2,,
{4}5,6,5,5/6,
{4}7,8,7/8,,
{2}4/5,3/6,
{2}2/7,1/8,
{1}1^6[8:3]/2^5[8:3],
{1}7^4[8:3]/8^3[8:3],
{1}5h[2:1]/6h[2:1],
{1}3h[2:1]/4h[2:1],
{1}1h[2:1]/2h[2:1],
{4}7/8,7/8,1/6,,
{1}3h[2:1]/4h[2:1],
{1}5h[2:1]/6h[2:1],
{1}7h[2:1]/8h[2:1],
{4}1/2,1/2,3/8,,
{2}3h[2:1],4h[2:1],
{2}5h[2:1],6h[2:1],
{2}7h[2:1],8,
{4}1/2,3/8,4/7,,
{2}6h[2:1],5h[2:1],
{2}4h[2:1],3h[2:1],
{2}2h[2:1],1,
{4}1-4[4:1]/8-5[4:1],,,3b/6b,
{4}4,5,6,5/6,
{4}5,4,3,3/4,
{4}8,1,2,1/2,
{1}7-4[4:1]/8-3[4:1],
{4}5,6,7/8,7/8,
{4}4,3,1/2,1/2,
{4}4/5,3/6,4/5,3/6,
{1}1-6[4:1]/2-5[4:1],
{4}4,5,4/5,3/6,
{4}2,1,1/2,3/8,
{4}7,8,7/8,1/6,
{1}1^4[8:3]/8^5[8:3],
{4}5/6,4,5/6,7,
{4}3/4,5,3/4,2,
{4}7/8,1/6,2/5,3/4,
{4}1/2,3/8,4/7,5/6,
{1}1b-4[4:1]/8b-5[4:1],
{1}2b/7b,
E
EXPERT
(185.0){4}1,2,3,4,
{4}5,6,7-4[8:1]/8-3[8:1],,
{4}5/6,5/6,1/2,1/2,
{4}5/6,5/6,3/8,,
{4}3/4,3/4,7/8,7/8,
{4}3/4,3/4,1/6,,
{4}5/6,5/6,1/2,1/2,
{4}5/6,5/6,3/8,,
{4}3/4,2/5,5/6,4/7,
{4}1/8,2-5[8:1]/7-4[8:1],,,
{4}5/6,4/7,1/2,3/8,
{4}5/6,4/7,1h[4:1]/2h[4:1],,
{4}3/4,2/5,7/8,1/6,
{4}3/4,2/5,7h[4:1]/8h[4:1],,
{4}5/6,7/4h[4:1],3,2/5,
{4}3/4,2/5h[4:1],6,4/7,
{4}5/6,4/7,3/4,2/5,
{8}3,5,4,6,3,5,4,6,
{1}3q6[2:1],
{8}8,,7,7,,6,,6qq3[8:5],{1},
{4},,1,1,
{1}7q2[2:1],
{8}4,,3,3,,2,,2qq7[8:5],{1},
{8}5,,3,3,,6,,1,
{1}1p6[2:1],
{8}8,,1,1,,5,,5qq2[8:5],{1},
{4},,1,1,
{1}8q3[2:1],
{8}1,,8,8,,4,,4pp7[8:5],{1},
{8}8,,1,1,,7,,2,
{8}8,8,2,2,6,6,4,4,
{8}5,4,6,3,7,,1b/8b,,
{4}1-5[8:1],8,8-4[8:1],1,
{4}1q5[8:1],8,8p4[8:1],1,
{4}1^4[8:1],8,8^5[8:1],1,
{8}1,,2/8,,5,4,5,,
{4}7-4[8:1],2,2-5[8:1],7,
{4}7v4[8:1],2,2v5[8:1],7,
{4}7^4[8:1],2,2^5[8:1],7,
{8}7,,6/8,,4,5,4,,
{4}4-8[8:1],5,5-1[8:1],4,
{4}4p8[8:1],5,5q1[8:1],4,
{4}4^1[8:1],5,5^8[8:1],4,
{8}4,,3/5,,8,1,8,,
{4}6-1[8:1],3,3-8[8:1],6,
{4}6v1[8:1],3,3v8[8:1],6,
{4}6^1[8:1],3,3^8[8:1],6,
{8}6,,5/7,,1,8,1,,
{8}4/5,,3,4,,,2/5,,
{8},,6,5,,,4/7,,
{8},,3,4,,,2/5,,
{8},,6,5,,,4/7,,
{8}3/4,,7,8,7,,1/6,,
{8}5/6,,2,1,2,,3/8,,
{8}2/5,,4/7,,1/8,2/7,3/6,,
{4}4qq3[4:1]/5pp6[4:1],,,1/8,
{4}8/7-4[8:1],8,1/2-5[8:1],1,
{4}8/7-4[8:1],8,1/2-5[8:1],1,
{8}7/8,,1/6,,3,5,4,,
{8}1/2,,3/8,,6,4,5,,
{4}7/8-4[8:1],7,2/1-5[8:1],2,
{4}7/8-4[8:1],7,2/1-5[8:1],2,
{8}7/8,,1/6,,3,5,4,,
{8}1/2,,3/8,,6,4,5,,
{2}4-1[8:1]/6-1[8:1],3-8[8:1]/5-8[8:1],
{2}4-1[8:1]/6-1[8:1],3-8[8:1]/5-8[8:1],
{2}5-1[8:1]/6-1[8:1],3-8[8:1]/4-8[8:1],
{2}5-1[8:1]/6-1[8:1],3-8[8:1]/4-8[8:1],
{16}6h[16:3],,,5,6,,,,3h[16:3],,,4,3,,,,
{16}7h[16:3],,,8,7,,,,2h[16:3],,,1,2,,,,
{16}5h[16:3],,,6,5,,,5,4,,,4,3,,,3,
{4}2,8/1w5[8:1],,,
{2}2h[1:1],3,
{2}3h[1:1],4,
{1}4>5[4:3],,
{2}7h[1:1],6,
{2}6h[1:1],5,
{1}5<4[4:3],,
{4}3,4,3/5h[4:1],6,
{4}6,5,6/4h[4:1],3,
{4}3,4,3/5h[4:1],6,
{4}6,4/5,3/6,,
{4}2,1,2/8h[4:1],7,
{4}7,8,7/1h[4:1],2,
{4}2,1,2/8h[4:1],7,
{4}2V41[4:1]/7V58[4:1],,,2b/7b,
{2}8h[4:1]/1-5[8:1],1h[4:1]/8-4[8:1],
{2}8h[4:1]/1q5[8:1],1h[4:1]/8p4[8:1],
{2}8h[4:1]/1^4[8:1],1h[4:1]/8^5[8:1],
{8}1/8,,2/7,,4,5,3/6,,
{2}5h[4:1]/4-8[8:1],4h[4:1]/5-1[8:1],
{2}5h[4:1]/4p8[8:1],4h[4:1]/5q1[8:1],
{2}5h[4:1]/4^1[8:1],4h[4:1]/5^8[8:1],
{4}2V41[4:1]/7V58[4:1],,,2b/7b,
{8}3,4,2,4,3,4,3/5,,
{8}6,5,7,5,6,5,4/6,,
{8}1,8,2,8,1,8,1/7,,
{8}2,6,4,5,3,7,1/8,,
{8}2/4,2/4,3/5,3/5,4/6,4/6,5/7,,
{8}5/7,5/7,4/6,4/6,3/5,3/5,2/4,,
{8}2,2,7,7,3,3,6,6,
{16}4,5,4,5,4,5,4,5,4,,,,3/6,,,,
{4}4qq4[4:1]/5pp5[4:1],,,1/8,
{1}2b/7b,
E
MASTER
(185.0){8}2,,1,,8,8,,1/7,
{16},,5,,4,,3,,2/7,,8,1,7,2,6,3,
{8}4/5,3/6,4-8[8:1]/5-7[8:1],,4b-2[8:1]/5b-1[8:1],,4b/5b,,
{8}4/5,3/6,4q3[4:1]/5<2[4:1],,,,,,
{16}1/8,,2/7,,1/8,,,,4,,6,,1,8,1,8,
{8}1,2/7,1/8,,8,3,1,6,
{8}4/5,3/6,4-2[8:1]/5-1[8:1],,4b-8[8:1]/5b-7[8:1],,4b/5b,,
{8}4/5,3/6,4>7[4:1]/5p6[4:1],,,,,,
{4}1-3[8:1]/8-4[8:1],1/8,1-5[8:1]/8-6[8:1],1/8,
{16}3,,4,,5,,6,,2/7,,1,8,2,7,3,6,
{8}4/5,2/7,4^2[8:1]/5^7[8:1],,4b-8[8:1]/5b-1[8:1],,4b/5b,,
{16}4/5,,2,1,2,1,2,,7,8,7,8,7,,,,
{16}1/8,,3/6,,1/8,,,,5,,3,,8,1,8,1,
{16}2/7,,6,5,6,5,6,,3,4,3,4,3,,,,
{8}5q1[8:1]/6^8[8:1],,5b/6b,,2,2,7/8,,
{8}3^1[8:1]/4p8[8:1],,3b/4b,,7,7,1/2,,
{8}5/6,3,1,1,3/4,6,8,8,
{16}5,4,6,3,7,2,8,1,8,7,6,5,4,3,2,1,
{1}4h[4:3]/8<1[2:1],
{8}7h[4:1],,8,8,,1,,2h[8:7],
{8},4,5,6,7,,7h[1:1],,
{8},5,4,3,2,,2,,
{1}5h[4:3]/1>8[2:1],
{8}2h[4:1],,1,1,,8,,7h[8:7],
{8},5,4,3,2,,2,,
{8}1h[4:1],,8,8,,7,,6,
{8}6h[2:1],5,4,3,2h[2:1],1,8,7,
{8}6h[4:1],,8,6/8,,1/5,,2/4,
{8}3h[2:1],4,5,6,7,,7/8,,
{8}6h[2:1],5,4,3,2,,1/2,,
{8}3h[2:1],4,5,6,7h[2:1],8,1,2,
{8}3h[4:1],,1,1/3,,4/8,,5/7,
{8}6h[2:1],5,4,3,2,,1/2,,
{8}7/8,,1,1,,3,,4,
{8}5/6,5/6,4/7,4/7,3/8,3/8,1/2,1/2,
{16}7,8,6,1,5,2,4,3,4w8[8:1],,,,4b,,,,
{16}2/6,,7,8,7,,1/8-4[8:1],,,,8/2-6[8:1],,,,1/2,,
{16},,5,,3,4,3,,2/5,,,,4/8,,,,
{16}3/7,,2,1,2,,8/1-5[8:1],,,,1/7-3[8:1],,,,7/8,,
{8},2,1/2,1/2,7/8,7/8,5/6,,
{16}3/7,,2,1,2,,8/1-5[8:1],,,,1/7-3[8:1],,,,7/8,,
{16},,4,,6,5,6,,4/7,,,,1/5,,,,
{16}2/6,,7,8,7,,1/8-4[8:1],,,,8/2-6[8:1],,,,1/2,,
{8},1,8,7,5-2[8:1]/6-1[8:1],,5b/6b,,
{16}3/8,,6,5,6,,1/8,,3,4,3,,8,,8,,
{16}4/7,,2,1,2,,4/5,,7,8,7,,4,,4,,
{16}3/8,,6,5,6,,1/8,,3,4,3,,8,,8,,
{8}1,2/6,3/7,4/8,1/5,4/8,3/7,,
{16}2/5,,7,8,7,,4/5,,2,1,2,,5,,5,,
{16}1/6,,3,4,3,,1/8,,6,5,6,,1,,1,,
{16}2/5,,7,8,7,,4/5,,2,1,2,,5,,5,,
{8}4,3/7,2/6,1/5,4/8,1/5,2/6,,
{8}3/8,1qq6[8:11]/2pp5[8:11],,1b/2b,,,,,{1},
{8}7,,1/2,1/2,4,,7/8,,
{8}5,,1/3,1/3,4,,6/8,,
{16}3b/4b,,2,,1/8,,7,,6^1[8:1],5,4,,,,,,
{16}5b/6b,,7,,1/8,,2,,3^8[8:1],4,5,,,,,,
{16}2/4,,3,,5/7,,6,,1,8,1,8,1-5[8:1],,,,
{4}7-4[8:1],2-5[8:1],8w4[8:1],,
{16}1/2,,,8,8,,3,,6,5,6,5,6,,4/7,,
{16},,1/2,,1/2,,3/8,,4/7,,6,5,6,,3,,
{8}6^3[16:3],,1,1,1,1,2,2,
{16}2^7[16:3],,,,6,,6,,6,,6,5,6,,,,
{16}7/8,,,1,1,,6,,3,4,3,4,3,,2/5,,
{16},,7/8,,7/8,,1/6,,2/5,,3,4,3,,6,,
{8}3^6[16:3],,8,8,8,8,7,7,
{16}7^2[16:3],,,,3,,3,,3,,3,4,3,,,,
{4}8/7-4[8:1],7/1-5[8:1],1/8-4[8:1],8/2-5[8:1],
{4}2/7-4[8:1],7/1-5[8:1],1/8-4[8:1],8b,
{4}1/2-5[8:1],2/8-4[8:1],8/1-5[8:1],1/7-4[8:1],
{4}7/2-5[8:1],2/8-4[8:1],8/1-5[8:1],1b,
{4}7-4[8:1],7b/8b,3-8[8:1],3b/4b,
{4}6-1[8:1],5b/6b,2-5[8:1],1b/2b,
{16}7-4[8:1],,,7,2-5[8:1],,,2,8-4[8:1],,,8,1-5[8:1],,,1,
{4}7,8w4[4:1],,,
{8}2-6[8:3],1,8,7,,7,,1,
{8},3,4,5,6,7,,7h[8:7],
{8},3,2,1,8-4[8:1],,8,,
{8},6,7,8,1-5[8:1],,1,,
{8}7-3[8:3],8,1,2,,2,,8,
{8},6,5,4,3,2,,2h[8:7],
{8},6,7,8,1-5[8:1],,1,,
{8},4,3,2,1/5,6,7,8,
{8}1/2,3-1[8:1],3,,7-5[8:1],7,,1,
{8},2-4[8:1],2,,6-8[8:1],6,,4,
{8},3-1[8:1],3,,7-5[8:1],7,,3,
{8}2,2h[4:1],1,1h[4:1],8,8h[8:1],7,,
{8}7/8,6-8[8:1],6,,2-4[8:1],2,,8,
{8},7-5[8:1],7,,3-1[8:1],3,,5,
{8},6-8[8:1],6,,2-4[8:1],2,,6,
{8}7,7h[4:1],8,8h[8:1],1w5[8:1],,1b,,
{16}3/7,,2,1,2,,3/8-4[8:1],,,,8/2^5[8:1],,,,1/2,,
{16},,7,,3,4,3,,2/5,,,,4/8,,,,
{16}2/6,,7,8,7,,6/1-5[8:1],,,,1/7^4[8:1],,,,7/8,,
{8},2,1/2,1/2,3/4,3/4,5/6,,
{16}3/7,,2,1,2,,3/8-4[8:1],,,,8/2^5[8:1],,,,1/2,,
{16},,7,,3,4,3,,2/5,,,,4/8,,,,
{16}2/6,,7,8,7,,6/1-5[8:1],,,,1/7^4[8:1],,,,7/8,,
{8},8,1,2,3-8[8:1]/4-7[8:1],,3b/4b,,
{4}1/2-6[8:1],2/1-5[8:1],1/8-4[8:1],8/7-3[8:1],
{4}7/8-4[8:1],8/1-5[8:1],1/2-6[8:1],2b,
{4}8/7-3[8:1],7/8-4[8:1],8/1-5[8:1],1/2-6[8:1],
{4}2/1-5[8:1],1/8-4[8:1],8/7-3[8:1],7b,
{4}1-5[8:1]/2-6[8:1],1^7[8:1]/2^4[8:1],1-6[8:1]/2-5[8:1],1b/2b,
{4}7-3[8:1]/8-4[8:1],7^5[8:1]/8^2[8:1],7-4[8:1]/8-3[8:1],7b/8b,
{8}1/8,1/8,2/7,2/7,3/6,3/6,4/5,4/5,
{16}5,4,6,3,7,2,8,1,8w4[8:1],,,,8b,,,,
{16}1,,8,,,,8h[8:3],,,,,,{641}1,,,,,,,,,,,,,,,,,,,,{639}2,,,,,,,,,,,,,,,,,,,,3,,,,,,,,,,,,,,,,,,,,{641}4,,,,,,,,,,,,,,,,,,,,5,,,,,,,,,,,,,,,,,,,,{639}6,,,,,,,,,,,,,,,,,,,,7,,,,,,,,,,,,,,,,,,,,{641}8,,,,,,,,,,,,,,,,,,,,
{1}1bw5[4:3],,
E
Re:MASTER
##comment
最終更新:2022年06月05日 02:49