EASY
BASIC
(147.0){1},,,,
{2}2,2,
{2}1,1,
{2}8,8,
{2}7,7,
{2}1,1,
{4}2,2,2,,
{2}3,3,
{4}4,4,4,,
{2}5,5,
{4}6,6,6,,
{2}7,7,
{4}8,8,8,,
{1}1h[2:1],
{1}8h[2:1],
{1}7h[2:1],
{4}6,6,5/6,,
{1}5h[2:1],
{1}4h[2:1],
{1}3h[2:1],
{4}2,2,1/2,,
{1}8-4[4:3],,
{1}1-5[4:3],,
{1}8-3[4:3],,
{1}1-6[4:3],,
{1}1/8,
{4}2,2,2,,
{4}3,3,3,,
{4}4,4,4,,
{4}5,4,4/5,,
{4}6,6,6,,
{4}7,7,7,,
{4}8,8,8,,
{4}1,8,1b/8b,,
{4}7,7,7,,
{4}6,6,6,,
{4}5,5,5,,
{4}4,5,4/5,,
{4}3,3,3,,
{4}2,2,2,,
{4}1,1,1,,
{4}8,1,1/8,,
{4}2,2,1/2,,
{4}7,7,7/8,,
{1}1h[1:1]/8h[1:1],,
{1}1b/8b,
E
ADVANCED
(147.0){1},,,,
{4}1,1,2,2,
{4}3,3,3/4,,
{4}8,8,7,7,
{4}6,6,5/6,,
{1}1^4[8:3]/8^5[8:3],
{4}6,5,6,,
{4}3,4,3,,
{4}5,4,3/6,3/6,
{4}2,1,2,,
{4}7,8,7,,
{4}1,1,8,8,
{1}1-4[8:3]/8-5[8:3],
{4}6,6,5/6,,
{4}3,3,3/4,,
{4}6,6,5,5,
{4}6,5,4/7,,
{4}2,2,1/2,,
{4}7,7,7/8,,
{4}2,2,3,3,
{1}3/4-8[2:1],
{2}2h[2:1],1,
{2}7h[2:1],8,
{2}3h[2:1],4,
{4}5,4,4/5,,
{4}6h[4:1],5,5/6,,
{4}3h[4:1],4,3/4,,
{4}7h[4:1],8,7/8,,
{4}1,8,1/8,2V41[8:5]/7V58[8:5],{1},
{4}2,1,3/8,,
{4}7,8,1/6,,
{4}2,2,1,1,
{4}8,1,2/7,,
{1}7-4[8:3]/8-3[8:3],
{1}1-6[8:3]/2-5[8:3],
{4}4,4,5,5,
{4}4/5,3/6,2/7,1b/8b,
{4}7,8,1/6,,
{4}2,1,3/8,,
{4}7,7,8,8,
{4}1/8,2/7,3/6,,
{4}3h[2:1],4,4,,
{4}6h[2:1],5,5,,
{1}4qq1[4:5]/5pp8[4:5],,
{4}1/2,1/2,7/8,7/8,
{4}1/6,,1/8,8/1>8[2:3],{1},,
{1}1b/8b,
E
EXPERT
(147.0){1}8h[2:3]/1>7[4:5],,
{1}1h[2:3]/8<2[4:5],
{4},,,2/7,
{16}3h[16:3],,,4,,,2/5,,,,1,,1,,,,
{16}6h[16:3],,,5,,,4/7,,,,8,,8,,,,
{16}4h[16:3],,,5,,,3/6,,,,1/8,,1/8,,,,
{16}5/7,,,2/4,,,4/5,,,,2b/7b,,2b/7b,,,,
{8}4/8<4[4:1],,,,2,2,1,,
{8}8/4>8[4:1],,,,6,6,5,,
{8}4/8<4[4:1],,,,2,2,1,,
{16}7h[16:3],,,6h[16:3],,,5,,,,3/7,,3/7,,,,
{8}5/1>5[4:1],,,,7,7,8,,
{8}1/5<1[4:1],,,,3,3,4,,
{8}5/1>5[4:1],,,,7,7,8,8,
{16}6/7,,,4/5,,,2/3,,,1/8,,,2b/7b,,,,
{8}1,2,3/4-1[8:1],,,,3/8,,
{8}8,7,6/5-8[8:1],,,,1/6,,
{8}1,2,3/4-8[8:1],,,,2/6,,
{16}2/3,,,4/5,,,6/7,,,1/8,,,3/6,,3/6,,
{8}5,6,7/8-5[8:1],,,,4/7,,
{8}4,3,1-6[8:1]/2-6[8:1],,,,4/8,,
{8}5,6,7/8-4[8:1],,,,2/6,,
{16}4/3h[16:3],,,2h[16:3],,,1,,,,1/8,,1/8,,,,
{4}2b-6[4:1]/7b-3[4:1],,,2/5<2[8:3],
{4},,7/8,7/4>7[8:3],
{4},,1/2,2^5[4:1]/6^1[4:1],
{16},,,,,,,,5/7,,4,5,,,2/4,,
{16}2/4,,8,1^4[16:5]*q5[16:5],,,1/8,,,,,,,,,,
{16}2/4,,5,4,,,5/7,,5/7^2[8:1],,,,,,,,
{16}4h[16:3],,,3h[16:3],,,2,,2,,,,4/5,,,,
{16}6h[16:3],,,7h[16:3],,,8,,3h[16:3],,,2h[16:3],,,1,,
{16}3b/8b,,,1b/6b,,,2b/7b,,,,4/5,,4>7[8:3]/5p6[8:3],,,,
{16},,,,,,,,6h[16:3],,,5h[16:3],,,4,,
{16}3-1[8:1]/4-8[8:1],,,,,,,,3h[16:3],,,4h[16:3],,,5,,
{16}5-1[8:1]/6-1[8:1],,,,,,,,2h[16:3],,,1h[16:3],,,8,,
{8}1-5[4:1]/7-3[4:1],,,,,,,1/2-5[8:1],
{8}1,,,8/7-4[8:1],8,,,4/3-8[8:1],
{8}4,,,5/6-1[8:1],5,,,3,
{16}2/4,,,5/7,,,1/8,,,,3/6,,3/6<3[8:3],,,,
{4},,4b/5b,1bp2[8:3]/8b<3[8:3],
{16},,,,,,,,3h[16:3],,,2h[16:3],,,1,,
{16}1-3[8:1]/4-8[8:1],,,,,,,,6h[16:3],,,7h[16:3],,,8,,
{16}4-1[8:1]/8-5[8:1],,,,,,,,2h[16:3],,,3h[16:3],,,4,,
{4}4>5[8:3],,,1/8,
{16}6/5h[16:3],,,3h[16:3],,,1,,,,3/4,,2/5,,,,
{16}3/4h[16:3],,,6h[16:3],,,8,,,,5/6,,4/7,,,,
{4}1V35[4:1]/5V71[4:1],,,3/7,
{4}4V28[4:1]/8V64[4:1],,,2/6,
{16}4h[16:3],,,3h[16:3],,,2,,,,5/6,,5^2[4:1]/6^1[4:1],,,,
{2},8-4[8:1],
{16}4/2h[16:3],,,1,,,5/7h[16:3],,,8,,,{4}2/8pp4[8:5]*qq4[8:5],{1},
{1}8b,
E
MASTER
(147.0){16}4h[16:3],,,5h[16:3],,,4,,,,6,,7,,8,,
{16}1h[16:3],,,8h[16:3],,,1,,,,2,,3,,4,,
{16}5h[16:3],,,4h[16:3],,,5,,,,3,,2,,1,,
{16}8h[16:3],,,1h[16:3],,,2,,,,3/4,,2/5,,1/6,,
{16}8/7-4[32:3],,,4-8[32:3],,,1,,,,5/6,,4/7,,3/8,,
{16}1/2-5[32:3],,,5-1[32:3],,,8,,,,3/4,,2/5,,1/6,,
{16}8/7-4[32:3],,,4-8[32:3],,,1,,,,5/6,,4/7,,3/8,,
{16}1b/2b,,,4b/6b,,,1b/7b,,,,3b/4b,,8b/1b>8[8:3],,,,
{16}1/8,,,,,,1b,,,,2,,3,,5,4,
{16}6h[16:3],,,7,,,7/5^2[8:1],,,,8,,7,,4,5,
{16}3h[16:3],,,2,,,2/4^7[8:1],,,,1,,2,,3,,
{16}5/7,,,4/2h[16:3],,,1-5[8:1],,8-4[8:1],,1,,8,,,,
{16}1/8h[16:3],,,7,,,6/1>5[16:3],,,,6,,7,,8,8,
{16}1h[16:3],,,2,,,3/8<4[16:3],,,,3,,2,,1,1,
{16}8h[16:3],,,7,,,6/1>5[16:3],,,,6,,7,,8,,
{16}1h[8:1]/2h[8:1],,,4h[8:1]/6h[8:1],,,7h[8:1]/8h[8:1],,,3h[8:1]/5h[8:1],,,1b/8b,,,,
{16}7,,1,,3/7,,4,5^8[8:1],,5,,1,1,,1,,
{16}2,,8,,2/6,,5,4^1[8:1],,4,,8,8,,8,,
{16}7,,1,,3/7,,4,5^8[8:1],,5,,1,1-4[32:3],,1,,
{16}1b-6[32:3],,,1b^4[32:3],,,1b^6[32:3],,,1bV38[32:5],,,1b,,7b,,
{16}6,,4,,2/6,,1,8V62[16:3],,8,,4,4,,4,,
{16}3,,5,,3/7,,8,1V37[16:3],,1,,5,5,,5,,
{16}6,,4,,2/6,,1,8V62[16:3],,8,,4,4,,4,,
{16}1/3,,,6/8,,,4/5h[4:1],,,,6h[8:1],,7h[8:1],,8h[8:1],,
{8}1^6[4:1],,,2,3^8[4:1],,,4,
{8}5^2[4:1],,,6,7^4[4:1],,,8,
{8}1^4[4:1],,,8,7^2[4:1],,,6,
{16}5^8[4:1],,,,,,4,,3h[16:3],,,2h[16:3],,,1,,
{16}3/8,,,1/6,,,1/8,,{641}1,,,,,,,,,,,,,,,,,,,,{639}2,,,,,,,,,,,,,,,,,,,,3,,,,,,,,,,,,,,,,,,,,{641}4,,,,,,,,,,,,,,,,,,,,5,,,,,,,,,,,,,,,,,,,,{639}6,,,,,,,,,,,,,,,,,,,,7,,,,,,,,,,,,,,,,,,,,{641}8,,,,,,,,,,,,,,,,,,,,{8}1/5,3/7,
{16}1/5,,,2/4,,,5/7,,7-3[8:1]/8-4[8:1],,,,7/8,,,,
{16}5/7,,,2/4,,,1,8,1-6[8:1],,2,,3,,4,,
{8}4h[16:3]/5V72[32:5],,,3,8h[16:3]/1V36[32:5],,,7,
{16}5b/7b,,,2b/4b,,,1b/8b,,,,{983}1,,,,,,,,,,,,,,,,,,,,,,,,,,,,,,,,,,,,,,,,,{625}8,,,,,,,,,,,,,,,,,,,,,,,,,,{983}1,,,,,,,,,,,,,,,,,,,,,,,,,,,,,,,,,,,,,,,,,{4}2b/7b,
{16}2^5[8:1]/6^1[8:1],,,,2/6,,,,2h[8:1]/4h[8:1],,,3/8,,,1/5,,
{16}3^8[8:1]/7^4[8:1],,,,3/7,,,,5h[8:1]/7h[8:1],,,1/6,,,4/8,,
{16}2pp4[8:1]/6pp8[8:1],,,,2/6,,,,1h[8:1]/3h[8:1],,,2/5,,,4/8,,
{16}1b/6b,,,3b/5b,,,1b-5[8:1]/8b-4[8:1],,,,,,,,2-5[8:1],1,
{16}2h[4:1],,,,,,7-4[8:1],8,7h[4:1],,,,,,3-8[8:1],4,
{16}3h[4:1],,,,,,6-1[8:1],5,6h[4:1],,,,,,3,,
{16}2/4,,,3/7,,,5/2^5[8:1],,,,1,,8,,7,,
{16}6^3[8:1],,,,2/6,,1,8,1bw5[8:1],,,,1b,,,,
{16}3^8[8:1]/7^4[8:1],,,,3/7,,,,5h[8:1]/7h[8:1],,,1/6,,,4/8,,
{16}2^5[8:1]/6^1[8:1],,,,2/6,,,,2h[8:1]/4h[8:1],,,3/8,,,1/5,,
{16}3qq1[8:1]/7qq5[8:1],,,,3/7,,,,6h[8:1]/8h[8:1],,,4/7,,,1/5,,
{16}1b/8b,,,3bqq5[16:5]/6bpp4[16:5],,,3b/6b,,,,,,,,2,8,
{16}1h[16:3],,,8h[16:3],,,7^4[8:1],,,,8,,1,,2,,
{16}1/2h[16:3],,,3h[16:3],,,4^7[8:1],,,,1h[4:1],,,,8,,
{16}8/7h[16:3],,,6pp3[16:5],,,8h[8:3],,,,,,,,,,
{16}2/4,,3/8,,5/7,,1/6,,1,8,1,8,{641}1,,,,,,,,,,,,,,,,,,,,{639}2,,,,,,,,,,,,,,,,,,,,3,,,,,,,,,,,,,,,,,,,,{641}4,,,,,,,,,,,,,,,,,,,,5,,,,,,,,,,,,,,,,,,,,{639}6,,,,,,,,,,,,,,,,,,,,7,,,,,,,,,,,,,,,,,,,,{641}8,,,,,,,,,,,,,,,,,,,,
{8}1b-5[8:1],1,7b-4[8:1],7,3b-7[8:1],3,5b>1[8:1],5,
{8}8b,{641}8,,,,,,,,,,,,,,,,,,,,{639}7,,,,,,,,,,,,,,,,,,,,6,,,,,,,,,,,,,,,,,,,,{641}5,,,,,,,,,,,,,,,,,,,,{16}4,,,,1/3,,,5/7,,,6/8,,
{16}1b/5b,,,3b/4b,,,4b/8b,,,5b/6b,,,2b/6b,,,,
{16}4bqq1[16:7]/8bqq5[16:7],,,,,,,,,,,,,,{641}1/5,,,,,,,,,,,,,,,,,,,,{639}2/6,,,,,,,,,,,,,,,,,,,,3/7,,,,,,,,,,,,,,,,,,,,{641}4/8,,,,,,,,,,,,,,,,,,,,
{1}1b/5b,
E
Re:MASTER
最終更新:2022年06月25日 16:40