EASY
BASIC
(120.0){2}5,5,
{2}4,4,
{2}5,5,
{2}4/5,4-1[4:3]/5-8[4:3],
(91.0){1},
(135.0){2}1,1,
{4}2,2,2,,
{2}3,3,
{4}4,5,4,,
{2}5,5,
{4}6,6,6,,
{2}7,7,
{4}8,1,8,,
{1}7h[2:1]/8h[2:1],
{1}1h[2:1]/2h[2:1],
{1}7h[2:1]/8h[2:1],
{1}1h[2:1]/2h[2:1],
{2}8,8,
{4}7,7,7,,
{2}6,6,
{4}5,4,5,,
{2}4,4,
{4}3,3,3b,,
{2}2,2,
{4}1,8,1,,
{4}1b,1,1,,
{4}2,2,2,,
{4}3,3,3,,
{4}1/2,1/2,1/2,,
{4}1,1,1,,
{4}2,2,2,,
{4}3,3,3,,
{4}1/2,1/2,1/2,,
{4}1b/8b,1/8,1/8,,
{4}7,7,7/8,,
{4}6,6,6,,
{4}5,5,4/5,,
{4}3,3,3,,
{4}2,2,1/2,,
{1}1h[2:1],
{1}8h[2:1],
{2}1/2,1/2,
{4}1/8,1/8,1/8,,
{2}7/8,7/8,
{4}1/8,1/8,1/8,,
{1}1-4[4:3]/8-5[4:3],,
{1}4-1[4:3]/5-8[4:3],,
{4}1/8,1/8,
E
ADVANCED
(120.0){2}4/5,4/5,
{2}3/4,3/4,
{2}5/6,5/6,
{2}4/5,4bqq2[8:5]/5bpp7[8:5],
(91.0){1},
(135.0){4}3,3,3/4,,
{4}6,6,5/6,7,
{4}7,7,7/8,,
{4}2,2,1/2,3,
{4}3,3,3/4,,
{1}3^8[8:3]/4^7[8:3],
{4}7,7,7/8,,
{4}6,6,5/6,,
{2}3h[2:1],4h[2:1],
{2}5h[2:1],6,
{2}6h[2:1],5h[2:1],
{2}4h[2:1],3,
{4}6,6,5/7,,
{4}3,3,2/4,1,
{4}7,7,6/8,,
{4}2,2,1/3,4,
{4}6,6,5/7,,
{1}7^4[8:3]/8^3[8:3],
{4}3,3,2/4,,
{4}2,2,1/3,,
{4}1b,2b,3b,,
{4}1b,2b,3b,,
{4}1b,2b,3b,4b,
{4}5,6,4/7,,
{4}1b,2b,3b,,
{4}1b,2b,3b,,
{4}1b,2b,3b,4b,
{4}5,6,4/7,,
{4}3h[4:1],4,6h[4:1],5,
{4}7/8,7/8,1/6,,
{4}6h[4:1],5,3h[4:1],4,
{4}1/2,1/2,3/8,,
{1}7-4[8:3]/8-3[8:3],
{1}1-6[8:3]/2-5[8:3],
{4}1,7,1,,
{4}1,7,1,,
{625}1b/2b,,,,,,,,,,,,,,,,,,,,,,,,,,,,,,,,,,,,,,,,,,,,,,,,,,,,,,,,,,,,,,,,,,,,,,,,,,,,,,,,,,,,,,,,,,,,,,,,,,,,,,,,,,,,,,,,,,,,,,,,,,,,,,,,,,,,,,,,,,,,,,,,,,,,,,,,,,,,,,,,,,,,,,,,,,,,,,,,,,,,,,,,,,,,,,,,,,,,,,,,,,,,,,,,,,,,,,,,,,,,,,,,,,,,,,,,,,,,,,,,,,,,,,,,,,,,,,,,,,,,,,,,,,,,,,,,,,,,,,,,,,,,,,,,,,,,,{2}7b/8b,{641}1/2,,,,,,,,,,,,,,,,,,,,
{617},,,,,,,,,,,,,,,,,,,,,,,,,,,,,,,,,,,,,,,,,,,,,,,,,,,,,,,,,,,,,,,,,,,,,,,,,,,,,,,,,,,,,,,,,,,,,,,,,,,,,,,,,,,,,,,,,,,,,,,,,,,,,,,,,,,,,,,{4}1/2,3b/8b,,{641}7b/8b,,,,,,,,,,,,,,,,,,,,
{625},,,,,,,,,,,,,,,,,,,,,,,,,,,,,,,,,,,,,,,,,,,,,,,,,,,,,,,,,,,,,,,,,,,,,,,,,,,,,,,,,,,,,,,,,,,,,,,,,,,,,,,,,,,,,,,,,,,,,,,,,,,,,,,,,,,,,,,,,,,,,,,,,,,,,,,,,,,,,,,,,,,,,,,,,,,,,,,,,,,,,,,,,,,,,,,,,,,,,,,,,,,,,,,,,,,,,,,,,,,,,,,,,,,,,,,,,,,,,,,,,,,,,,,,,,,,,,,,,,,,,,,,,,,,,,,,,,,,,,,,,,,,,,,,,,,,,{2}1b/2b,{641}7/8,,,,,,,,,,,,,,,,,,,,
{617},,,,,,,,,,,,,,,,,,,,,,,,,,,,,,,,,,,,,,,,,,,,,,,,,,,,,,,,,,,,,,,,,,,,,,,,,,,,,,,,,,,,,,,,,,,,,,,,,,,,,,,,,,,,,,,,,,,,,,,,,,,,,,,,,,,,,,,{4}7/8,{625}1b/6b,,,,,,,,,,,,,,,,,,,,,,,,,,,,,,,,,,,,,,,,,,,,,,,,,,,,,,,,,,,,,,,,,,,,,,,,,,,,,,,,,,,,,,,,,,,,,,,,,,,,,,,,,,,,,,,,,,,,,,,,,,,,,,,,,,,,,,,,,,,,,,,,,,,,,,,,,,,,,,,,,,,,,,,,,,,,,,,,,,,,,,,,,,,,,,,,,,,,,,,,,,,,,,,,,,,,,,,,,,,,,,,,,,,,,,,,,,,,,,,,,,,,,,,,,,,,,,,,,,,,,,,,,,,,,,,,,,,,,,,,,,,,,,,,,,,,,,,,,,,,,,,,,,,,,,,,,,,,,,,,,,,,,,,,,,,,
{1}1bpp4[4:5]/8bqq5[4:5],,
{1}4qq1[4:5]/5pp8[4:5],,
{4}1/8,2/7,
E
EXPERT
(120.0){2}4h[4:1]/5h[4:1],4h[4:1]/5h[4:1],
{2}3h[4:1]/4h[4:1],3h[4:1]/4h[4:1],
{2}5h[4:1]/6h[4:1],5h[4:1]/6h[4:1],
{2}4h[4:1]/5h[4:1],4bqq2[8:5]/5bpp7[8:5],
(91.0){1},
(135.0){4}5/6,7,3/4,2,
{4}6/5h[4:1],7h[4:1],8,1/6,
{4}3/4,2,5/6,7,
{4}3/4h[4:1],2h[4:1],1,3/8,
{4}5/6,8,3/4,1,
{4}4/5p4[16:5],,,2b/7b,
{4}4/5,7,4/5,2,
{4}3h[4:1],4h[4:1],5h[4:1],6,
{4}3/4h[4:1],1,6/5h[4:1],8,
{4}2/4,4/6,1/8,,
{4}6/5h[4:1],8,3/4h[4:1],1,
{4}5/7,3/5,1/8,,
{4}4/5,2,3/4,1,
{4}2/4,8/1-4[4:1],,,
{4}4/5,7,5/6,8,
{4}5/7,8/7^4[4:1],,,
{4}3/4,5,3/4,4/3pp8[2:1],
{4},,,7b,
{4}5/6,4,5/6,8,
{4}6h[4:1],5h[4:1],4h[4:1],3,
{4}1b/8,2b,3b/4-8[8:1],,
{4}1b,2b,3b/4-8[8:1],,
{4}1b,2b,3b/4,4b/5,
{4}2b/4,5/7b,1b/8b,,
{4}1b/8,2b,3b/4-8[8:1],,
{4}1b,2b,3b/4-8[8:1],,
{4}1b,2b,3b/4,4b/5,
{1}2bV41[16:5]/7bV58[16:5],
{2}4/3^1[12:1],5/6^8[12:1],
{4}2/5,4/7,5-1[12:1]/6-8[12:1],,
{2}4/3^1[12:1],5/6^8[12:1],
{4}2/8,1/7,1/8,2/7,
{2}6/5-1[12:1],3/4-8[12:1],
{4}5/7,4/5,2/4,4/8,
{4}2^5[8:1]/6^1[8:1],,4/8,3/7,
{4}2^5[8:1]/6^1[8:1],,4/8,{617}5/6,,,,,,,,,,,,,,,,,,,,,,,,,,,,,,,,,,,,,,,,,,,,,,,,,,,,,,,,,,,,,,,,,,,,,,,,,,,,,,,,,,,,,,,,,,,,,,,,,,,,,,,,,,,,,,,,,,,,,,,,,,,,,,,,,,,,,,,{641}2/5,,,,,,,,,,,,,,,,,,,,
{617},,,,,,,,,,,,,,,,,,,,,,,,,,,,,,,,,,,,,,,,,,,,,,,,,,,,,,,,,,,,,,,,,,,,,,,,,,,,,,,,,,,,,,,,,,,,,,,,,,,,,,,,,,,,,,,,,,,,,,,,,,,,,,,,,,,,,,,{4}3/4,4/7,5/6,{641}2/5,,,,,,,,,,,,,,,,,,,,
{617},,,,,,,,,,,,,,,,,,,,,,,,,,,,,,,,,,,,,,,,,,,,,,,,,,,,,,,,,,,,,,,,,,,,,,,,,,,,,,,,,,,,,,,,,,,,,,,,,,,,,,,,,,,,,,,,,,,,,,,,,,,,,,,,,,,,,,,{4}4/7,{625}1h[4:1]/5h[4:1],,,,,,,,,,,,,,,,,,,,,,,,,,,,,,,,,,,,,,,,,,,,,,,,,,,,,,,,,,,,,,,,,,,,,,,,,,,,,,,,,,,,,,,,,,,,,,,,,,,,,,,,,,,,,,,,,,,,,,,,,,,,,,,,,,,,,,,,,,,,,,,,,,,,,,,,,,,,,,,,,,,,,,,,,,,,,,,,,,,,,,,,,,,,,,,,,,,,,,,,,,,,,,,,,,,,,,,,,,,,,,,,,,,,,,,,,,,,,,,,,,,,,,,,,,,,,,,,,,,,,,,,,,,,,,,,,,,,,,,,,,,,,,,,,,,,,,,,,,,,,,,,,,,,,,,,,,,,,,,,,,,,,,,,,,,,
{617}4/8,,,,,,,,,,,,,,,,,,,,,,,,,,,,,,,,,,,,,,,,,,,,,,,,,,,,,,,,,,,,,,,,,,,,,,,,,,,,,,,,,,,,,,,,,,,,,,,,,,,,,,,,,,,,,,,,,,,,,,,,,,,,,,,,,,,,,,,{4}5/6,1/5,3/4,{641}4/8,,,,,,,,,,,,,,,,,,,,
{617},,,,,,,,,,,,,,,,,,,,,,,,,,,,,,,,,,,,,,,,,,,,,,,,,,,,,,,,,,,,,,,,,,,,,,,,,,,,,,,,,,,,,,,,,,,,,,,,,,,,,,,,,,,,,,,,,,,,,,,,,,,,,,,,,,,,,,,{4}1/5,{625}3h[4:1]/7h[4:1],,,,,,,,,,,,,,,,,,,,,,,,,,,,,,,,,,,,,,,,,,,,,,,,,,,,,,,,,,,,,,,,,,,,,,,,,,,,,,,,,,,,,,,,,,,,,,,,,,,,,,,,,,,,,,,,,,,,,,,,,,,,,,,,,,,,,,,,,,,,,,,,,,,,,,,,,,,,,,,,,,,,,,,,,,,,,,,,,,,,,,,,,,,,,,,,,,,,,,,,,,,,,,,,,,,,,,,,,,,,,,,,,,,,,,,,,,,,,,,,,,,,,,,,,,,,,,,,,,,,,,,,,,,,,,,,,,,,,,,,,,,,,,,,,,,,,,,,,,,,,,,,,,,,,,,,,,,,,,,,,,,,,,,,,,,,
{1}1b^4[2:1]/5b^8[2:1],
{4}7,6,5,4,
{4}3,2,1b-5[4:1],,
{4},4,5,{12}4,{995}5,,,,,,,,,,,,,,,,,,,,,,,,,,,,,,,,,,,,,,,,,,,,,,,,,,,,,,,,,,,,,,,,,,,,,,,,,,,,,,,,,,,{12}4,
{4}5,2b/7b,
E
MASTER
(120.0){2}2^4[12:1]/7^5[12:1],2^4[12:1]/7^5[12:1],
{2}1^3[12:1]/6^4[12:1],1^3[12:1]/6^4[12:1],
{2}3^5[12:1]/8^6[12:1],3^5[12:1]/8^6[12:1],
{2}1^3[12:1]/8^6[12:1],4bqq3[8:5]/5bpp6[8:5],
(91.0){1},
(135.0){12}7,,7,4,,4,6,,6,2,,2,
{4}2v5[8:1]/8v5[8:1],,3-7[8:1]/6-4[8:1],3/6,
{12}2,,2,5,,5,3,,3,7,,7,
{4}1v4[8:1]/7v4[8:1],,3-5[8:1]/6-2[8:1],3/6,
{12}7,,7,5,,5,4,,4,2,,2,
{4}2^5[8:1]/6^1[8:1],2p6[8:1]/6p2[8:1],,4/8,
{12}2,,2,4,,4,5,,5,7,,7,
{12}2^5[8:1],,1,2,,,7^4[8:1],,8,7,,,
{2}2v4[8:1]/4pp6[8:1],5qq3[8:1]/7v5[8:1],
{4}4/7,2/5,5qq3[8:1]/7v5[8:1],,
{2}2v4[8:1]/4pp6[8:1],7-1[8:1]/8-4[8:1],
{2}2qq1[8:1]*^5[8:1],4v1[8:1]/5-8[8:1],
{12}2/1^6[8:1],,2,1,,,3/4^7[8:1],,3,4,,,
{12}2/1^6[8:1],,2,1-5[8:1],,,1b/5b,,,3/7,,,
{12}7/8^3[8:1],,7,8,,,6/5^2[8:1],,6,5,,,
{12}1/8v3[8:1],,1,8-2[8:1]*-6[8:1],,,8b-3[8:1]*-5[8:1],,,8b,,,
{12}2/1^6[8:1],,2,1,,,6/5^2[8:1],,6,5,,,
{12}2/1^6[8:1],,2,1,,,{625}1b/6b,,,,,,,,,,,,,{622}2/7,,,,,,,,,,,,,{989}3/8,,,,,,,,,,,,,,,,,,,,,,,,,,,,,,,,,,,,,,,,,,,,,,,,,,,,,,,,,,,,,,,,,,,,,,,,,,,,,,,,,,,,,,,,,,,,,,,,,,,,,,,,,,,,,,,,,,,,,,,,,,,,,,,,,,,,,,,,,,,,,,,,,,,,,,,,,,,,,,,,,,,,,,,,,,,,,,,,,,,,,,,,,,,,,,,,,,,,,,,,,,,,,,{625}3b/8b,,,,,,,,,,,,,{622}2/7,,,,,,,,,,,,,{989}1/6,,,,,,,,,,,,,,,,,,,,,,,,,,,,,,,,,,,,,,,,,,,,,,,,,,,,,,,,,,,,,,,,,,,,,,,,,,,,,,,,,,,,,,,,,,,,,,,,,,,,,,,,,,,,,,,,,,,,,,,,,,,,,,,,,,,,,,,,,,,,,,,,,,,,,,,,,,,,,,,,,,,,,,,,,,,,,,,,,,,,,,,,,,,,,,,,,,,,,,,,,,,,,,
{4}7/1p5[8:1],3/1q5[8:1],6/1^6[8:1],4/1^4[8:1],
{4}6/1^6[8:1],4,{625}1/6,,,,,,,,,,,,,{622}2,,,,,,,,,,,,,{625}3,,,,,,,,,,,,,{16}4,,,{625}4/1-5[8:1],,,,,,,,,,,,,{622}8,,,,,,,,,,,,,{625}7,,,,,,,,,,,,,{16}6,,,
{4}1b^4[8:1]*^6[8:1],1bw5[8:1],1b,8b-4[8:1],
{4}8b^3[8:1]*^5[8:1],8bw4[8:1],8b,1b-5[8:1],
{4}1b^4[8:1]*^6[8:1],1bw5[8:1],1b-3[8:1]*-7[8:1],1b-4[8:1]*-5[8:1],
{4}1b-6[8:1]*-7[8:1],1bw5[8:1],1b,8b-4[8:1],
{4}8b^3[8:1]*^5[8:1],8bw4[8:1],8b,1b-5[8:1],
{4}1b^4[8:1]*^6[8:1],1bw5[8:1],1b,8b-4[8:1],
{4}8b^3[8:1]*^5[8:1],8bw4[8:1],8b-2[8:1]*-6[8:1],8b-4[8:1]*-5[8:1],
{4}8b-2[8:1]*-3[8:1],8bw4[8:1],8b,2b/7b,
{4}4q8[8:1]/8^5[8:1],4p8[8:1]/8^3[8:1],4q8[8:1]/8^5[8:1],4/8,
{12}1/4,,3,4/8,,7,2-5[8:1]/6-3[8:1],,,,,,
{4}1^4[8:1]/5p1[8:1],1^6[8:1]/5q1[8:1],1^4[8:1]/5p1[8:1],1/5,
{12}7,{995}8,,,,,,,,,,,,,,,,,,,,,,,,,,,,,,,,,,,,,,,,,,,,,,,,,,,,,,,,,,,,,,,,,,,,,,,,,,,,,,,,,,,{12}7,6/8,,1/8,1/8,,,3/6,,,
{4}2-4[8:1]/4pp6[8:1],4-8[8:1],4,1/7,
{4}5qq3[8:1]/7-5[8:1],5-1[8:1],5,8h[1250:2461],
{2}1b>7[16:3],1b>7[16:3],
{641}1b,,,,,,,,,,,,,,,,,,,,{639}2,,,,,,,,,,,,,,,,,,,,3,,,,,,,,,,,,,,,,,,,,{641}4,,,,,,,,,,,,,,,,,,,,5,,,,,,,,,,,,,,,,,,,,{639}6,,,,,,,,,,,,,,,,,,,,{16}7,{641}1b,,,,,,,,,,,,,,,,,,,,{639}2,,,,,,,,,,,,,,,,,,,,3,,,,,,,,,,,,,,,,,,,,{641}4,,,,,,,,,,,,,,,,,,,,5,,,,,,,,,,,,,,,,,,,,{639}6,,,,,,,,,,,,,,,,,,,,{16}7,{641}1b,,,,,,,,,,,,,,,,,,,,{639}2,,,,,,,,,,,,,,,,,,,,3,,,,,,,,,,,,,,,,,,,,{641}4,,,,,,,,,,,,,,,,,,,,5,,,,,,,,,,,,,,,,,,,,{639}6,,,,,,,,,,,,,,,,,,,,{16}7,1b-4[8:1]*-6[8:1],,,,
{4}1b,5-2[8:1]*-8[8:1],5b,1-3[8:1]/5-7[8:1],
{4}1b-4[8:1]/5b-8[8:1],1b-5[8:1]/5b-1[8:1],1b/5b,8-3[8:1]*-5[8:1],
{4}8b,4-1[8:1]*-7[8:1],4b,4-2[8:1]/8-6[8:1],
{4}4b-1[8:1]/8b-5[8:1],4b-8[8:1]/8b-4[8:1],4b/8b,1s5[8:1]/8z4[8:1],
{1}1b>8[1:1]/8b<1[1:1],
{4},,4-8[4:1],8>7[4:1],
{4}7q8[4:1],8>7[4:1],7q8[4:1],8>7[4:1],
{4}7q8[4:1],8>7[4:1],7q8[4:1],8,
{4}7,{625}1,,,,,,,,,,,,,{622}2b/8b,,,,,,,,,,,,,{625}3b/7b,,,,,,,,,,,,,4b/6b,,,,,,,,,,,,,5b,
E
Re:MASTER
最終更新:2022年06月25日 18:29