EASY
BASIC
(185.0){1},,,,
{8},1h[2:3],,,,,,,{1},
{8},1,,,,1,,,
{8},2,,,,2,,,
{8},3,,,,3,,,
{8},4/5,,,,,,,
{8},5,,,,5,,,
{8},6,,,,6,,,
{8},7,,,,7,,,
{8},8,,,,8,,,
{8},1b/8b,,,,,,,{1},
{8},1,,,,1,,,
{8},2,,,,2,,,
{8},3h[2:1],,,,,,,
{8},4,,,,4,,,
{8},5-8[4:3],,,,,,,{1},
{8},8,,,,8,,,
{8},7,,,,7,,,
{8},6h[2:1],,,,,,,
{8},5h[2:1]/6h[2:1],,,,,,,
{8},4,,,,4,,,
{8},3,,,,3,,,
{8},2h[2:1],,,,,,,
{8},1b/8b,,,,,,,
{8},1-5[4:3],,,,,,,{1},
{8},6,,,,6,,,
{8},7/8,,,,,,,
{8},8-4[4:3],,,,,,,{1},
{8},3/4,,,,,,,
{8},2,,2,,2,,,
{8},1,,1,,1,,,
{8},8,,8,,8,,,
{8},7/8,,,,7/8,,,
{8},6,,5,,6,,,
{8},5,,5,,5,,,
{8},4,,4,,4,,,
{8},3/4,,,,3/4,,,
{8},1/2,,,,1b/2b,,,
{8},8,,8,,8,,,
{8},1,,1,,1,,,
{8},1/2,,,,1/2,,,
{8},3,,4,,3,,,
{8},4,,4,,4,,,
{8},5,,5,,5,,,
{8},6h[2:1],,,,,,,
{8},7b/8b,,,,,,,
{8},1-5[4:3],,,,,,,{1},
{8},8-4[4:3],,,,,,,{1},
{8},1,,1,,1,,,
{8},2,,2,,2,,,
{8},3,,3,,3,,,
{8},4,,4,,4,,,
{8},4/5,,,,,,,
{8},4/5,,,,,,,
{8},5/6,,,,,,,
{8},5/6,,,,,,,
{8},3/4,,,,,,,
{8},3/4,,,,,,,
{8},2,,,,2,,,
{8},1h[2:1]/8h[2:1],,,,,,,
{8},,,,,1,,1,
{8},1,,,,2,,2,
{8},2,,,,3,,3,
{8},3,,,,4,,5,
{8},4,,,,6h[2:1],,,
{8},,,,,7h[2:1],,,
{8},,,,,8,,8,
{8},8,,,,1,,8,
{8},1,,,,8,,8,
{8},8,,,,7,,7,
{8},7,,,,6,,6,
{8},6,,,,4,,5,
{8},4,,,,3h[2:1],,,
{8},,,,,2h[2:1],,,
{8},,,,,1h[2:1]/8h[2:1],,,
{8},,,,,1/2,,,
{8},2,,,,7/8,,,
{8},7,,,,1-5[4:3],,,{1},
{8},,,,,8-4[4:3],,,{1},
{8},,,,,1,,,
{8},1,,,,2,,,
{8},2,,,,3,,,
{8},3,,,,4,,,
{8},4/5,,,,4h[2:3]/5h[2:3],,,{1},
{2},4/5,
E
ADVANCED
(185.0){1},,,,,,
{8},3,,3,,3,,,
{8},6,,6,,6,,,
{8},3,,3,,2,,,
{8},6,,6,,7,,,
{8},3,,2,,1,,,
{8},6,,7,,8,,,
{8},1,,8,,1,,,
{8},1/8,,1/8,,2/7,,,
{8},3,,3,,2/4,,,
{8},6,,6,,5/7,,,
{8},3,,3,,4,,4,
{8},3,,4,,2/5,,,
{8},6,,6,,5,,5,
{8},6,,5,,4/7,,,
{8},3,,3,,2,,2,
{8},1,,1,,8b,,,
{8},7,,7,,6/8,,,
{8},2,,2,,1/3,,,
{8},7,,7,,8,,8,
{8},7,,8,,1/6,,,
{8},2,,2,,1,,1,
{8},2,,1,,3/8,,,
{8},6,,6,,7,,7,
{8},8,,8,,1b,,,
{8},1^6[4:3]/2^5[4:3],,,,,,,{1},
{8},7^4[4:3]/8^3[4:3],,,,,,,{1},
{8},4^1[4:3]/5^8[4:3],,,,,,,{1},
{8},1/8,,1/8,,2h[4:1]/7h[4:1],,,
{1}2/7,
{8},1/2,,1/2,,3/8,,,
{8},7/8,,7/8,,1/6,,,
{8},3,,4,,3,,2/5,
{8},1,,8,,2/7,,,
{8},1,,1,,2,,2,
{8},3,,3,,4,,4,
{8},5,,5,,6,,6,
{8},7,,7,,1/8,,,
{8},7/8,,7/8,,1/6,,,
{8},1/2,,1/2,,3/8,,,
{8},6,,5,,6,,4/7,
{8},8,,1,,2/7,,,
{8},6,,6,,5,,5,
{8},4,,4,,3>6[8:5],,,
{8},,,,,,,2/7,
{1}2/7,
{8},3h[4:1],,4,,3,,,
{8},6h[4:1],,5,,6,,,
{8},2h[4:1],,3,,2,,,
{8},7h[4:1],,6,,7,,,
{8},2h[4:1],,1,,2,,,
{8},7h[4:1],,8,,7,,,
{8},1/8,,1/8,,2/7,,,
{8},1h[2:1]/8h[2:1],,,,,,,
{8},,,,,6h[1:1],,,
{8},,,,,5h[1:1],,,
{8},,,,,4h[1:1],,,
{8},,,,,3h[1:1],,,
{8},,,,,2h[1:1],,,
{8},,,,,1h[1:1],,,
{8},,,,,8<1[1:1],,,{1},
{8},,,,,3h[4:1],,4,
{8},1/5,,,,6h[4:1],,5,
{8},4/8,,,,3,,3/4,
{8},6,,5/6,,7,,7/8,
{8},1/6,,,,8,,8,
{8},7,,7,,6,,6,
{8},5,,5,,4,,4,
{8},3,,3,,2,,2,
{8},1/8,,,,5/6,,5/6,
{8},4b/8b,,,,3/4,,3/4,
{8},1b/5b,,,,6,,5/6,
{8},3,,3/4,,2,,1/2,
{8},3/8,,,,3,,3,
{8},4,,4,,5,,5,
{8},6<3[8:5],,,,,,,
{8},,,2/7,2/7,,,,
{8},,,1/8,1/8,,,,
{8},,,2/7,2/7,,,3,
{8},4,,5,,6,,7,
{8},1/8,,1/8,,7,,6,
{8},5,,4,,3,,2,
{8},1/8,,,,2,,3,
{8},4,,5,,7,,6,
{8},5,,4,,2,,3,
{8},4,,5,,6,,7,
{8},1/8,,1/8,,7,,6,
{8},5,,4,,3,,2,
{8},1/8,,2/7,2/7,
E
EXPERT
(185.0){1}1pp5[8:9],,
{1}8qq4[8:9],
{8},,,1h[4:1],,8h[4:1],,1,
{8},2/7,,3,,2/4,,6,
{8},5/7,,3/6,,4/5,4/5,,
{8}2b/7b,,,7/8,,8,7,6,
{8},8,1,2,,1/6,,4/7,
{8}4/7,,,5/6,,5,6,7,
{8},5,4,3,,4/7,,1/5,
{8}1/5,,,1/2,,1,2,3,
{8},1,8,7,,3/8,,2/5,
{8}2/5,,,3/4,,4,3,2,
{8},4,5,6,,2/5,,4/8,
{8}4b/8b,,,4,,4,,4,
{8},5,,5,,5,,4/5,
{8}4/5,,,3/6,,7,,6/8,
{8},1,,2/8,,3,,2/5,
{8}2/5,,,4,,3/5,,2,
{8},1/3,,8,,1/7,,6,
{8}6,,,5/7,,3,,4/2p5[2:1],
{8},,,,,,,8,
{8}8b,,,2,,1/3,,4,
{8},3/5,,6,,5/7,,8,
{8}8,,,1/7,,6,,5/7,
{8},4,,3/5,,2,,3/8,
{8}3/8,,,1,,2/8,,3,
{8},2/4,,5,,4/6,,7,
{8}7,,,6/8,,2,,1/3,
{8},1/8,,2/7,,3/6,,4V61[4:3]/5V71[4:3],{1},
{8},2h[4:1],,8h[4:1],,1,,1V35[4:3]/8V25[4:3],{1},
{8},6h[4:1],,4h[4:1],,5,,4q1[4:3]/5p8[4:3],{1},
{8},2h[4:1],,4h[4:1],,5h[4:1],,7,
{1}7,
{8}2/4,,5/7,,4/5,4/5,,2/7,
{8}2b/7b,,3,,4/5,4/5,,3,
{8}3h[4:1],,6,,7/8,7/8,,6,
{8}6h[4:1],,4,,4/5,4/5,,3,
{8}3h[4:1],,1,,1/8,1/8,,3/5,
{4}3/5,4/7,2/5,3/8,
{4}1/6,3/7,1b/5b,7,
{4}1h[4:1],8h[4:1],2h[4:1],7-3[8:1],
{8},,2,2-6[8:1],,,,,
{8}8,,7/8,,1/6,1/6,,5,
{8}5h[4:1],,3,,1/2,1/2,,3,
{8}3h[4:1],,5,,4/5,4/5,,6,
{8}6h[4:1],,8,,1/8,1/8,,4/6,
{4}4/6,2/5,4/7,1/6,
{4}3/8,4/5,3/6,2/7,
{8}1p5[8:3]/8q4[8:3],,,,,,,2/7,
{8}2b/7b,,,,,,,1/8,
{8}1b/8b,,,1/2,,1,2,3,
{8},1,8,7,,3/8,,2/5,
{8}2/5,,,3/4,,4,3,2,
{8},4,5,6,,2/5,,4/8,
{8}4/8,,,7/8,,8,7,6,
{8},8,1,2,,1/6,,4/7,
{8}4/7,,,5/6,,5,6,7,
{8},5,4,3,,4h[8:3],,,
{8}7b-4[2:1],,,,,,,2,
{8}2-5[2:1],,,,,,,8,
{8}8^5[2:1],,,,,,,1,
{8}1^4[16:9],,,,,,,7,
{2}7h[2:1],6h[2:1],
{2}5h[2:1],4h[2:1],
{8}5^2[8:3]*^7[8:3],,,,,,,1/8,
{1}1b/8b,
{8},,,2/7,2b/7b,,6,,
{8}4/5,4/5,,6,5h[4:1],,1,,
{8}1/2,1/2,,2,1h[4:1],,4,,
{8}4/5,4/5,,6,5h[4:1],,8,,
{8}1/8,1/8,,4/6,4/6,,2/5,,
{4}4/7,1/6,3/8,2/6,
{4}4b/8b,2,5h[4:1],4h[4:1],
{8}6h[4:1],,3-7[8:1],,,,6,6-2[8:1],
{4},,1,1/2,
{8}3/8,3/8,,4,5h[4:1],,7,,
{8}7/8,7/8,,8,7h[4:1],,5,,
{8}4/5,4/5,,3,4h[4:1],,1,,
{8}1/8,1/8,,3/5,3/5,,4/7,,
{4}2/5,3/8,1/6,4/5,
{4}3/6,2/7,1p5[8:3]/8q4[8:3],,
{8},,,2/7,2b/7b,,,,
{4},1/8,3/6,,
{8},,,2/7,2b/7b,,,7/8,
{8},8,7,6,,8,1,2,
{8},1/6,,4/7,4/7,,,5/6,
{8},5,6,7,,5,4,3,
{8},4/7,,1/5,1/5,,,1/2,
{8},1,2,3,,1,8,7,
{8},3/8,,2/5,2/5,,,3/4,
{8},4,3,2,,4,5,6,
{8},2/5,,4/8,4/8,,1,,
{4}1,7,7,3,
{8}3,5,4,5,4-8[2:1],,,,,,,
E
MASTER
(185.0){16}1,,2,,3,4,3,,8,,7,,6,,5-1[8:1],,
{16}4,,,,,,2,,3,,4,,6,5,6,,
{16}7,,8h[4:1],,,,1,,1,,2/8,,3,4,3,,
{8}5,6,7,8w4[4:1],,8,,,
{8},1/8h[1:1],,3,,5,,6qq2[8:3],
{8},6,,,,1/8,1s5[8:1]/8z4[8:1],,
{8}1b/8b,,2,1,2,3/8,4,5,
{8}4,6-1[8:1],5,4,3,2,1/3,4/8,
{8}5/7,,7,8,7,1/6,5,4,
{8}5,3-8[8:1],4,5,6,7,6/8,1/5,
{8}2/4,,2,1,2,3/7,4,6,
{8}4,5-1[8:1],2,3,4,5,4/6,3/7,
{8}2/8,,7,8,7,2/6,5,3,
{8}5,4-8[8:1],7,6,5,4,2/7,2/7,
{8}1b/8b,,3,4,3,6,5,6,
{8}2,4,2,7,5,7,1-5[8:1],,
{8}1b,,4/6,4/6,,2/7,,2/7,
{8},3/6,,4/5,4/5,6,7,8,
{8}1pp5[2:1],,8,8,,7,,6,
{8}5/6,,7h[8:3],8,1,2h[8:3],3,4,
{8}5-1[8:1],,8,8,,6/8,,1/3,
{16},,7,8,6,1,5,2,4,3,5,2,6,1,7,,
{8}8b/1b-5[8:1],,8,8-4[8:1],,2-6[8:1],,7-3[8:1],
{8},1-5[8:1],,8,7,6p3[16:5],,2,
{8}2^7[8:1],,,,,1/8,,1/8,
{8},3/6,,4/5,4/5,3,2,1,
{8}8qq4[2:1],,1,1,,2,,3,
{8}3/4,,2h[8:3],1,8,7h[8:3],6,5,
{16}4-8[8:1],,,,1,,1,,,,1/3,,,,7,8,
{16}6,1,5h[8:5],,,,4,,4,,4,,4,,3,,
{8}2/6b<2[4:1],,,,6,5,4,3,
{8}6/2>6[4:1],,,,2,3,4,5,
{8}2/6,,6h[8:3],5,4,3h[8:3],2,1,
{8}8h[1:1],,1,1,1,1,1,1,
{8}1,,,7-3[8:1],,7/1-5[8:1],,1/8-4[8:1],
{16},,8/2-6[8:1],,,,2/7,,,,4/5,,8,1,8,1,
{1}2bqq4[2:1]/7bpp5[2:1],
{8}3/6,,4/5,3/6,2/7,1/8,,,
{8}4b/7b,,2-6[8:1],1-5[8:1],2,1,,3/4,
{8}2/5,,7-3[8:1],8-4[8:1],7,8,,5/6,
{8}4/7,,4,3,2,1h[4:1],,8,
{8}8qq5[2:1],,1,2,3,4,,,
{4}2-6[8:1],1/2,7-3[8:1],7/8,
{4}1-5[8:1],1/7,8-4[8:1],2/8,
{8}1h[1:1],,2,2,2,2,3,4,
{16}5,,,,1,5,2,6,3,7,4,,4-1[8:1]/8-5[8:1],,,,
{16}4b/8b,,,,7,8,7,8,7,,2/6,,2-7[8:1]/6-3[8:1],,,,
{16}2b/6b,,,,2,1,2,1,2,,3/7,,3-8[8:1]/7-4[8:1],,,,
{8}3/7,,5,6,7,8h[4:1],,1,
{8}1pp4[2:1],,8,7,6,5,,,
{4}7-3[8:1],7/8,2-6[8:1],1/2,
{4}8-4[8:1],2/8,1-5[8:1],1/7,
{16}8,,,,8,2,8,2,8,2,8,2,7,3,6,4,
{16}5h[8:5],,,,1,,,,{983}7,,,,,,,,,,,,,,,,,,,,,,,,,,,,,,,,,,,,,,,,,{625}8,,,,,,,,,,,,,,,,,,,,,,,,,,{983}1,,,,,,,,,,,,,,,,,,,,,,,,,,,,,,,,,,,,,,,,,{8}2b,,,
{16}3/6,,,,7,,8,,7,,1/6,,3,4,3,,
{8}2/5,3-8[8:1],4,5,6,7,7/8,2/6,
{16}3/4,,,,2,,1,,2,,3/8,,6,5,6,,
{16}4/7,,6,,3,,5,4,5,4,3/6,,7/8,,1/2,,
{16}3b/6b,,,,7,,8,,7,,1/5,,3,4,3,,
{8}2/6,4-8[8:1],7,6,5,4,3/4,2/6,
{16}7/8,,,,2,,1,,2,,4/8,,6,5,6,,
{8}3/7,5,2,3,4,5h[4:1],4h[8:1],,
{2}3b/6b,5/7,
{4}2/4,,1/8,2/7,
{8}3/6,,5,4,5,4,,3/6,
{8}3/6,,7,8,1,2,,,
{2}7h[4:3],8h[4:3],
{2}1h[4:3],2h[2:1],
{1}3>6[2:1],,
{16},,1/8,,3,4,3,,1b/6b,,,,7-3[8:1],,8-4[8:1],,
{8}7,8,,5/6,3/8,,2-6[8:1],1-5[8:1],
{8}2,1,,3/4,1/6,,4,5,
{8}6,1/7h[4:1],,8,8pp3[2:1],,7,6,
{8}5,4,,,8/7-3[8:1],,1/7,,
{4}1/2-6[8:1],2/8,7/8-4[8:1],2/8,
{8}2/1-5[8:1],,1/7,,1/8h[1:1],,7,7,
{16}7,,7,,6,,5,,4,,,,8,4,7,3,
{16}6,2,5,,1-4[8:1]/5-8[8:1],,,,1b/5b,,,,2,1,2,1,
{16}2,,3/6,,3-7[8:1]/6-4[8:1],,,,3b/6b,,,,6,5,6,5,
{16}6,,2/7,,2-6[8:1]/7-1[8:1],,,,2/7,,,,3,4,2,,
{16}6,5,7,,3,4,1,,6,5,8,,1/2,,3/4,,
{16}5/6,,7/8,,5,4,5,,4/3-7[8:1],,,,3/5,,,,
{4}5/6-2[8:1],4/6,3/4-8[8:1],4/6,
{16}6/5-1[8:1],,,,3/5,,,,2/7,,,,1,7,1,7,
{16}1,7,1,7,2,6,3,5,4bz8[4:1],,,,,,,,
{16},,,,6b/8b,,,,1b/3b,,,,6,5,7,,
{16}3,4,2,,1s5[8:1]/8z4[8:1],,,,1b/8b,,,,2,,1,,
{16}2,,3/8,,{983}8,,,,,,,,,,,,,,,,,,,,,,,,,,,,,,,,,,,,,,,,,{625}7,,,,,,,,,,,,,,,,,,,,,,,,,,{983}6,,,,,,,,,,,,,,,,,,,,,,,,,,,,,,,,,,,,,,,,,{8}5,1,6-1[8:1],5,4,
{8}3,2,1/2,5/7,3/4,,7,8,
{8}7,1/6,{983}1,,,,,,,,,,,,,,,,,,,,,,,,,,,,,,,,,,,,,,,,,{625}2,,,,,,,,,,,,,,,,,,,,,,,,,,{983}3,,,,,,,,,,,,,,,,,,,,,,,,,,,,,,,,,,,,,,,,,{8}4,8,3-8[8:1],4,5,
{8}6,7,7/8,2/4,5/6,,2,1,
{8}2,3/7,{983}7,,,,,,,,,,,,,,,,,,,,,,,,,,,,,,,,,,,,,,,,,{625}6,,,,,,,,,,,,,,,,,,,,,,,,,,{983}5,,,,,,,,,,,,,,,,,,,,,,,,,,,,,,,,,,,,,,,,,{8}4,1,5-1[8:1],2,3,
{8}4,5,5/6,1/3,7/8,,7,8,
{8}7,2/6,{983}2,,,,,,,,,,,,,,,,,,,,,,,,,,,,,,,,,,,,,,,,,{625}3,,,,,,,,,,,,,,,,,,,,,,,,,,{983}4,,,,,,,,,,,,,,,,,,,,,,,,,,,,,,,,,,,,,,,,,{8}5,8,4,7,6,
{8}5,3/7,1/5,3/7,{2}1bpp5[8:7]/5bpp1[8:7],{1},
{8},4/5,6/8,1/3,8b/1h[16:11],,,,
{16},{983}3,,,,,,,,,,,,,,,,,,,,,,,,,,,,,,,,,,,,,,,,,{625}4,,,,,,,,,,,,,,,,,,,,,,,,,,{983}5,,,,,,,,,,,,,,,,,,,,,,,,,,,,,,,,,,,,,,,,,6,
E
Re:MASTER
最終更新:2022年07月10日 14:25