EASY
BASIC
(163.0){1},,,,,
{2}4,4,
{2}4,4,
{2}5,5,
{2}5,5,
{1}4b/5b,
{4}3,3,3,,
{4}2,2,2,,
{4}1,1,1,,
{4}8,1,8,,
{4}7,7,7,,
{4}6,6,6,,
{4}5,5,5,,
{4}4,5,4b,,
{1}5h[2:1]/6h[2:1],
{4}6,5,6,,
{1}3h[2:1]/4h[2:1],
{4}3,4,3,,
{1}1h[2:1]/2h[2:1],
{4}2,1,2,,
{1}7h[2:1]/8h[2:1],
{4}7,8,7b,,
{4}1,1,2,2,
{4}3,3,4/5,,
{4}5,5,6,6,
{4}7,7,1/8,,
{4}8,8,7,7,
{4}6,6,4/5,,
{2}4/5,4/5,
{2}3/6,3/6,
{1}2h[1:1]/7h[1:1],
{2},1/8,
{4}2,1,2,1,
{1}2h[2:1],
{4}7,8,7,8,
{1}7h[2:1],
{4}6,6,5,5,
{4}4,4,3/4,,
{4}3,3,4,4,
{1}5h[2:1]/6h[2:1],
{4}7,8,7,8,
{1}7h[2:1],
{4}2,1,2,1,
{1}2h[2:1],
{4}3,3,4,4,
{4}5,5,5/6,,
{4}4,4,3,3,
{1}2h[2:1],
{1}1-5[4:3],,
{1}8-4[4:3],,
{1}2-5[4:3],,
{1}7-4[4:3],,
{1}4/5,
{4}4,4,3,3,
{4}2,2,1/8,,
{4}8,8,7,7,
{4}6,6,4/5,,
{4}5,5,6,6,
{4}7,7,1/8,,
{2}1/8,1/8,
{2}2/7,2/7,
{1}3h[1:1]/6h[1:1],
{2},4/5,
{4}6,6,5,5,
{1}4h[2:1]/6h[2:1],
{4}3,3,4,4,
{1}3h[2:1]/5h[2:1],
{4}2,2,1,1,
{4}8,8,7/8,,
{4}8,8,1,1,
{1}2h[2:1],
{4}3,3,4,4,
{1}3h[2:1]/5h[2:1],
{4}6,6,5,5,
{1}4h[2:1]/6h[2:1],
{4}7,7,8,8,
{4}1,1,1/2,,
{4}1,1,8,8,
{1}2h[2:1]/7h[2:1],
{1}1/8,
E
ADVANCED
(163.0){1},
{1}2q7[4:5],,
{1}7p2[4:5],,
{4}3,4,3,,
{4}6,5,6,,
{4}3,3,6,6,
{4}4,5,4/5,,
{1}2b/7b,
{4}1,1,2,2,
{4}3,3,3/4,,
{4}8,8,7,7,
{4}6,6,5/6,,
{4}4,4,3,3,
{4}2,2,1/2,,
{4}5,5,6,6,
{4}7,7,7/8,,
{4}5,5,4/6,,
{4}4,4,3/5,,
{4}8,8,1/7,,
{4}1,1,2/8,,
{4}3,3,2/4,,
{4}6,6,5/7,,
{4}2,2,1/3,,
{4}7,7,6/8,,
{2}3h[2:1],4,
{2}6h[2:1],5,
{2}2h[2:1],3,
{2}7h[2:1],6,
{2}2h[2:1],1,
{2}7h[2:1],8,
{2}3h[2:1],2,
{2}6h[2:1],7,
{1}4qq1[4:5]/5pp8[4:5],,
{4}1,2,3,3/4,
{4}8,7,5/6,,
{4}8,7,6,5/6,
{4}1,2,3/4,,
{4}5,6,7,7/8,
{4}4,3,1/2,,
{4}4,3,2,1/2,
{4}5,6,7/8,,
{4}7,6,5,4/5,
{4}2,3,4/5,,
{4}2,3,4,4/5,
{4}7,6,4/5,,
{4}3,2,1,1/8,
{4}6,7,1/8,,
{4}7,8,2,1,
{1}1-4[2:1]/8-5[2:1],
{2}3h[2:1],4h[2:1],
{2}5h[2:1],6,
{2}6h[2:1],5h[2:1],
{2}4h[2:1],3,
{4}1,2,3,4,
{1}5-2[2:1]/6-1[2:1],
{4}8,7,6,5,
{1}3-8[2:1]/4-7[2:1],
{1}1b/6b,
{4}4,4,3,3,
{4}1/2,1/2,3/8,,
{4}5,5,6,6,
{4}7/8,7/8,1/6,,
{4}1,1,2,2,
{4}3/4,3/4,2/5,,
{4}8,8,7,7,
{4}5/6,5/6,4/7,,
{1}1-4[4:3]/8-5[4:3],
{4},,4/5,2b/7b,
{4}1,2,3,4,
{4}5/6,5/6,4/7,,
{4}8,7,6,5,
{4}3/4,3/4,2/5,,
{4}4,3,2,1,
{4}7/8,7/8,1/6,,
{4}5,6,7,8,
{4}1/2,1/2,3/8,,
{4}1,2,3,4,
{4}5/6,4/7,3/8,1/2,
{4}8,7,6,5,
{4}3/4,2/5,1/6,7/8,
{4}5,6,7,8,
{4}1/2,3/8,4/7,5/6,
{4}3/4,3/4,5/6,5/6,
{1}4-1[2:1]/5-8[2:1],
{1}2b/7b,
E
EXPERT
(163.0){1},
{1}4>5[4:11],,,,
{4}5/4h[4:3],5,3,3,
{4}4/5h[4:3],4,6,6,
{4}5/4h[4:3],5,3,3,
{8}2,4,3,7,5,6,3,5,
{1}4bV28[2:1]*V68[2:1],
{4}2h[4:1],1,7h[4:1],8,
{8}2h[4:1],,3,,6,5,6,,
{4}3h[4:1],1,6h[4:1],8,
{4}2h[4:1],4h[4:1],5h[4:1],7,
{4}7h[4:1],8,2h[4:1],1,
{8}7h[4:1],,6,,3,4,3,,
{4}6h[4:1],8,3h[4:1],1,
{4}3/5,4/6,2/5,4/7,
{4}5/6,3/8,3/4,1/6,
{2}7^4[8:1],3^8[8:1],
{4}6,3/8,3/4,1/6,
{4}5/6,1-6[8:1]/2-5[8:1],,,
{4}7/8,2/5,1/2,4/7,
{2}6^1[8:1],2^5[8:1],
{8}7,,2/5,,1,1,,1/2,
{8},5/6,,3/4,,7b/8b,,,
{8}3,4,3/5,,6,5,6,5h[4:1],
{8},6h[4:1],,7^2[8:1],,,,,
{8}7,8,1/7,,2,1,2/8,,
{8}3,4,3,4h[8:3],,,5,,
{8}6,5,4/6,,3,4,3,4h[4:1],
{8},5h[4:1],,6h[4:1],,4h[4:1],,3,
{4}3>6[4:1],,,7,
{8}7-4[8:1],,8,8-3[8:1],,,,,
{1}4pp8[1:1]*qq8[1:1],
{4},,1/8,2b/7b,
{2}1/2^5[8:1],8/7^4[8:1],
{4}2qq5[8:3],,,7,
{2}5/6^1[8:1],4/3^8[8:1],
{4}5w1[4:1],,,8,
{4}7-4[8:1],1,2-5[8:1],8,
{8}7,8,7,6,5,,3/8,,
{4}3h[4:1],6h[4:1],5h[4:1],4h[4:1],
{1}3q6[2:1],
{2}7-4[8:1]/8-4[8:1],1-5[8:1]/2-5[8:1],
{4}7pp4[8:3],,,2,
{2}3-8[8:1]/4-8[8:1],5-1[8:1]/6-1[8:1],
{4}4w8[4:1],,,1,
{4}2-6[8:1],8,7-3[8:1],1,
{8}2,1,2,3,4,,1/6,,
{4}3-8[8:1],5,6-1[8:1],4,
{8}4h[16:3]/5h[16:3],,,4b-1[8:1]/5b-8[8:1],,,,,
{4}2h[4:3],3,,3,
{4}5h[4:3],4,,4,
{4}1h[4:3],8,,8,
{4}7h[4:3],6,,6,
{8}2h[4:1],,1,,3,4,3,,
{8}7h[4:1],,8,,6,5,6,,
{8}1/8,,2/7,,4,5,4,,
{8}3/7,,1/5,,4,5,3/6,,
{1}1pp4[2:1]/8qq5[2:1],
{8}1-5[8:1],,8,,7h[4:1],,6,6,
{8},7/8,,3/4,,5/6,,1/2,
{4}2h[4:1],3,8h[4:1],6,
{8}3,4,3,4h[8:3],,,5,,
{8}8-4[8:1],,1,,2h[4:1],,3,3,
{8},1/2,,5/6,,3/4,,7/8,
{4}7v5[4:1]/8V25[4:1],,,3/8,
{4}1V74[4:1]/2v4[4:1],,,1/6,
{1}5pp1[1:1]*qq1[1:1],
{4},,1/8,2b/7b,
{8}1/2,1/2,3/8,,7/8,7/8,1/6,,
{1}1qq6[2:1]/2pp5[2:1],
{8}7/8,7/8,1/6,,1/2,1/2,3/8,,
{1}7qq4[2:1]/8pp3[2:1],
{8}3,4,2/5,,6,5,4/7,,
{8}1/2,1/2,3/8,3/8,4h[4:1]/7h[4:1],,,,
{2}1-4[8:1]/5-8[8:1],4-1[8:1]/8-5[8:1],
{4}1^4[4:1]/5^8[4:1],,,2/7,
{4}1-5[8:1],8-4[8:1],2-6[8:1],7-3[8:1],
{4}1w5[4:1],,,3/7,
{4}8-4[8:1],1-5[8:1],7-3[8:1],2-6[8:1],
{4}8w4[4:1],,,2/6,
{2}1-5[8:1]/7-4[8:1],2-5[8:1]/8-4[8:1],
{8}7/8,7/8,1/6,1/6,2h[4:1]/5h[4:1],,,,
{2}3-7[8:1]/4-8[8:1],5-1[8:1]/6-2[8:1],
{4}4w8[4:1],,,1,
{1}4/8b<8[4:15],,,,,
E
MASTER
(163.0){1},,,,,
{1}1>7[4:5]/8<2[4:5],
{16},,,,,,,,,,,,1,1,8,8z4[2:1],{1},
{16}3,4,3,4,3,,6,5,6,5,6,,1,8,1,8,
{1}1s5[2:1],
{16}6,,3,4,,6,5,,3,4,,1,7,8,7,,
{16}3,,6,5,,3,4,,6,5,,8,2,1,2,,
{16}6,,3,4,,6,5,,3,4,,1,7,8,7,,
{16}2/4,,,5/7,,,2/7,,1,8,2,7,3,6,4,5,
{16}3,,6,5,,3,4,,7,5,,8,2,1,2,,
{16}6,,3,4,,6,5,,2,4,,1,7,8,7,,
{16}3,,6,5,,3,4,,7,5,,8,2,1,2,,
{16}4/5,4/5,,2,,7,,3/6,,1/8,1/8,,,,,,
{8}6/3h[4:1],,4,1/7,,4/6h[4:1],,8,
{8},1/3,,2/5,,7/8,,3/6,
{8}8/1-5[8:1],,6,7,8-4[8:1],3,2,1-5[8:1],
{8},8,7,3/6,,4/5,1/8,,
{8}3/6h[4:1],,5,2/8,,5/3h[4:1],,1,
{8},6/8,,4/7,,1/2,,3b/6b,
{8},,4/5,3,2,1-5[8:1],,8-4[8:1],
{8},7-3[8:1],,6-2[8:1],,5,5,,
{8}1/2,4,1/2,7,1/2,8,7,6,
{8},1/5,,3qq4[4:1]/7qq8[4:1],,,,,
{8}3/4,6,3/4,1,3/4,2,1,8^3[8:1],
{8},6,5,3/4^7[8:1],,1,1,,
{8}7/8,5,7/8,2,7/8,1/6,2/5,3/4-8[8:1],
{8},5-1[8:1],,6-2[8:1],,7-3[8:1],,8,
{8}8<2[4:1],,1,1-5[8:1],,8,8,,
{8}1>7[4:1],,8,8-4[8:1],,1,1,,
{16}1,8,1,8,2,7,2,7,1,8,2,7,3,6,4,5,
{16}3,6,2,7,1,8,2,7,1b-4[8:1]*-6[8:1],,,,1b,,,,
{16}2/7,,,,6,,5,,4,,2,1,2,,3/8,,
{16}6,5,6,,7,8,,3/4,,2,1,,4/6,,1,,
{16}2/8,,3/7-3[8:1],,,,3/7,,1,,6,5,6,,3/8,,
{16}2,1,2,,6,5,6,5,,1/2,,4,5,,3/6,,
{8}2/7,8/1w5[8:1],,1,,2/8,6,1/7,
{8}3,1/5,7,4/8,2^5[8:1]/6^1[8:1],,2/6,,
{16}4/8,,6,5,6,,2/7^4[8:1],,,,1,,2,,3,,
{16}5/6,,3/4,,1/8,,3,4,,6,5,,1,8,1,,
{16}2b/7b,,,,3,,4,,5,,7,8,7,,1/6,,
{16}3,4,3,,2,1,,5/6,,7,8,,3/5,,8,,
{16}1/7,,6/2-6[8:1],,,,2/6,,8,,3,4,3,,1/6,,
{16}7,8,7,,3,4,3,4,,7/8,,5,4,,3/6,,
{8}2/7,1/8w4[8:1],,8,,1/2,7/8,1/5,
{8}3b-8[8:1]/7b-4[8:1],,3b/7b,,2b/6b,,1/8,2/4,
{16}5/7,,3,4,3,,7/1^4[8:1],,,,8,,7,,6,,
{16}2/4,,,5/7,,,1/8,,,,3/6,,4,5,4,5,
{16}3h[16:3],,,4h[16:3],,,5,,,,3/7,,,,2/8,,
{16}6h[16:3],,,5h[16:3],,,4,,,,2/6,,,,1/7,,
{16}4h[16:3],,,6h[16:3],,,8,,,,3/5,,,,1/7,,
{16}5h[16:3],,,3h[16:3],,,1,,,,4/6,,,,2/8,,
{16}4/5,,2,1,,4,5,,1,8,,6,3,4,3,,
{16}4/5,,7,8,,5,4,,8,1,,3,6,5,6,,
{16}4/5,,2,1,,7,8,,4,5,,1,8,1,8,,
{16}4/5,4/5,,5/7,,2/4,,3/6,,1/8,1/8,,,,,,
{1}2b/7b,
{8}7/8,5,7/8,2,7/8,1,2,3,
{8},4/8,,2pp1[4:1]/6pp5[4:1],,,,,
{8}5/6,3,5/6,8,5/6,7,8,1^6[8:1],
{8}2,3,4,6/5^2[8:1],,8,8,,
{8}1/2,4,1/2,7,1/2,3/8,4/7,6/5-1[8:1],
{8},4-8[8:1],,3-7[8:1],,2-6[8:1],,1,
{8}1>7[4:1],,8,8-4[8:1],,1,1,,
{8}8<2[4:1],,1,1-5[8:1],,8,8,,
{16}8,1,8,1,7,2,7,2,8,1,7,2,6,3,5,4,
{16}6,3,7,2,8,1,7,2,8b-3[8:1]*-5[8:1],,,,8b,,,,
{16}2/7,,,,4,,2/8,,5/6,,7,8,7,,1/6,,
{16}3,4,3,,2,1,,5/6,,7,8,,3/6,,7/8,,
{16}1/6,,2/5-1[8:1],,,,1/5,,2,,3,4,3,,1/6,,
{16}7,8,7,,5,4,5,4,,1/3,,7,8,,1/6,,
{8}2/5,3/4w8[8:1],,4,,1/2,4/5,7/8,
{8}3/6,1/4,3/6,5/8,3^8[8:1]/7^4[8:1],,3/7,,
{16}1/5,,3,4,3,,7/2^5[8:1],,,,8,,7,,6,,
{16}3/4,,5/6,,1/8,,6,5,,3,4,,1,8,1,,
{16}2b/7b,,,,5,,1/7,,3/4,,2,1,2,,3/8,,
{16}6,5,6,,7,8,,3/4,,2,1,,3/6,,1/2,,
{16}3/8,,7/4-8[8:1],,,,4/8,,7,,6,5,6,,3/8,,
{16}2,1,2,,4,5,4,5,,6/8,,2,1,,3/8,,
{8}4/7,6/5w1[8:1],,5,,7/8,1/2,4/8,
{8}2b-5[8:1]/6b-1[8:1],,2b/6b,,3b/7b,,1/8,5/7,
{16}2/4,,6,5,6,,2/8^5[8:1],,,,1,,2,,3,,
{16}6/8,,,1/3,,,4/5,,,,2/7,,1,8,1,,
{1}3b/6b,
E
Re:MASTER
最終更新:2022年08月06日 07:44