EASY
BASIC
(190.0){1},,,,
{1}1,
{1}2,
{1}3,
{1}4,
{1}5,
{1}6,
{1}7,
{1}8,
{2}1,1,
{1}1,
{2}2,2,
{1}2,
{2}3,3,
{1}3,
{2}4,4,
{1}4,
{1}5-8[4:3],,
{1}1-4[4:3],,
{2}5,5,
{1}5,
{2}6,6,
{1}6,
{2}7,7,
{1}7,
{2}8,8,
{1}8,
{2}8,8,
{2}7,7,
{2}6,6,
{2}5,5,
{2}4,4,
{2}3,3,
{2}2,2,
{2}1,8,
{4}1,8,1b/8b,,
{4}8,8,8,,
{4}7,7,7,,
{4}6,6,6,,
{4}5,5,5,,
{4}4,4,4,,
{4}3,3,3,,
{4}2,2,2,,
{4}1,1,1,,
{4}8,8,8,,
{4}1,1,1,,
{4}2/7,2/7,2/7,,
{4}1/8,1/8,1b/8b,,
(180.0){1},
{2}1,2,
{2}3,4,
{2}5,6,
{1}7h[2:1],
{2}8,7,
{2}6,5,
{2}4,3,
{1}2h[2:1],
{2}1,2,
{2}3,4,
{2}5,6,
{2}7,1/8,
{2}8,7,
{2}6,5,
{2}4,3,
{2}2,1/8,
{1}2h[2:1],
{1}3h[2:1],
{1}4h[2:1],
{1}5h[2:1],
{1}6h[2:1],
{1}7h[2:1],
{1}1h[1:2]/8h[1:2],,,
(190.0){1},
{1}1/8,
{1}2/7,
{1}3/6,
{2}4/5,4/5,
{1}4/5,
{1}3/6,
{1}2/7,
{4}1,1,1b,,
{4}8,8,7,7,
{4}6,6,4/5,,
{4}4,4,3,3,
{4}2,2,1/8,,
{4}1,1,2,2,
{4}3,3,4/5,,
{4}5,5,6,6,
{4}7,7,1/8,,
{4}2,2,3,3,
{4}4,4,5,5,
{4}6,6,7,7,
{4}1/8,1/8,1b/8b,,
{4}1,1,8,8,
{4}1/8,1/8,2b/7b,,
{4}8,8,7,7,
{4}6,6,5,5,
{4}4,4,3,3,
{4}2,2,1/8,,
{4}1,1,2,2,
{4}3,3,4,4,
{4}5,5,6,6,
{4}7,7,1/8,1/8,
E
ADVANCED
(190.0){1}3qq5[4:5],,
{1}6pp4[4:5],,
{4}3,3,4/5,,
{4}6,6,4/5,,
{4}3,3,3/4,,
{4}6,6,5/6,4/7,
{4}3,3,1/2,,
{4}6,6,7/8,,
{4}1,8,2/7,,
{4}3,3/4,6,5/6,
{4}4,4,5,5,
{4}6,6,5/7,,
{4}5,5,4,4,
{4}3,3,2/4,,
{4}4,4,3,3,
{4}2,2,1/3,,
{4}5,5,6,6,
{4}7,7,6/8,5z1[2:3],{1},,
{4}8,7,6,5,
{4}4,3,2,1b,
{4}5,5,4,4,
{4}3,3,2/4,,
{4}4,4,5,5,
{4}6,6,5/7,,
{4}5,5,6,6,
{4}7,7,6/8,,
{4}4,4,3,3,
{4}2,2,1/3,,
{2}5h[2:1],6h[2:1],
{2}7h[2:1],8,
{2}4h[2:1],3h[2:1],
{2}2h[2:1],1,
{2}4h[4:1]/5h[4:1],3h[4:1]/6h[4:1],
{4}2h[4:1]/7h[4:1],,1/8,1^4[8:5]/8^5[8:5],{1},
{4}3/4,3/4,5/6,5/6,
{2}4h[4:1]/5h[4:1],2b/7b,
{4}1/2,1/2,7/8,7/8,
{4}1/2,1/2,3b/8b,,
{4}6,5/6,3,3/4,
{4}6,5/7,3,2/4,
{4}7/8,7/8,1/2,1/2,
{4}7/8,7/8,1b/6b,,
{4}3,2/4,6,5/7,
{4}8,1,2/7,,
{4}4,4,5,5,
{4}2,1,8,7,
{4}5/6,5/6,3/4,3/4,
{4}4/5,4/5,2b/7b,,
(180.0){2}4h[2:1],5h[2:1],
{2}3h[2:1],4,
{2}6h[2:1],5,
{2}2h[2:1],3,
{2}7h[2:1],6,
{2}2h[2:1],1,
{2}7h[2:1],8,
{2}3h[2:1],4h[2:1],
{2}5h[2:1],6,
{2}6h[2:1],5,
{2}3h[2:1],4,
{2}7h[2:1],6,
{2}2h[2:1],3,
{2}7h[2:1],8,
{2}2h[2:1],1,
{2}6h[2:1],5h[2:1],
{2}4h[2:1],3,
{1}2-5[2:1],
{1}6-1[2:1],
{1}3-8[2:1],
{1}7-4[2:1],
{2}3h[2:1],4h[2:1],
{2}5h[2:1],6h[2:1],
{1}7pp2[4:7],,,
(190.0){1},
{1}1,
{1}2,
{1}3,
{2}4,5,
{1}4,
{1}3,
{1}2^7[2:1],
{4}1b/8b,1b/8b,2b/7b,,
{4}1/2,1/2,7/8,7/8,
{4}1/2,7/8,1b/6b,,
{4}5,5/6,4,3/4,
{4}6,5/7,3,2/4,
{4}7/8,7/8,1/2,1/2,
{4}7/8,1/2,3b/8b,,
{4}3,2/4,6,5/7,
{4}8,1,2/7,,
{4}4,4,5,5,
{4}2,1,8,7,
{4}5/6,4/7,3/4,2/5,
{4}3/6,2/7,1b/8b,,
{4}2/3,2/3,6/7,6/7,
{4}4/5,4/5,1b/8b,,
{4}2,2,1/2,3/8,
{4}7,7,7/8,1/6,
{4}5,4,3/6,3/6,
{4}4,5,3/6,2/7,
{4}8,8,7/8,7/8,
{4}1,1,1/2,1/2,
{4}3,4,5/6,3/4,
{4}4/5,3/6,2/7,1/8,
E
EXPERT
(190.0){1},,,,
{8}7,7,1,1,8-4[8:1],,,,
{8}2,2,8,8,1-5[8:1],,,,
{8}7,7,1,1,8-4[8:1],,,,
{8}2,2,8,8,1-5[8:1],,,,
{8}7,7,8,8,7-4[8:1],,,,
{8}2,2,1,1,2-5[8:1],,,,
{8}7,7,8,8,7-4[8:1],,,,
{8}2,2,1,1,2-5[8:1],,,,
{8}4/6,,2/8,,1,,7,7,
{8},1h[4:1],,8,8h[4:1],,1,,
{8}3/5,,1/7,,8,,2,2,
{8},8h[4:1],,1,1h[4:1],,8,,
{8}1/7,,3/5,,4,,6,6,
{8},4h[4:1],,5,5h[4:1],,4,,
{8}2/8,,4/6,,5,,3,3,
{8},5h[4:1],,4,4h[4:1],,{4}5<4[4:3],{1},
{8}2,8,2,8,2-5[8:1],,,,
{8}7,1,7,1,7-4[8:1],,,,
{4}1/2,7/8,4b-1[8:1]/5b-8[8:1],,
{8}7,7,8,,2,2,1,,
{8}7,7,8,,1/2,,7/8,,
{8}3,3,1,,6,6,8,,
{8}3,3,1,,6/8,,1/3,,
{8}6,5,6,,3,4,3,,
{8}6,5,6,,3/4,,5/6,,
{8}2,4,2,,7,5,7,,
{8}2,4,2,,5/7,,2/4,,
{8}8,8,2,2,6,6,4,4,
{8},3/8,3/8,,1b-6[8:1]/2b-5[8:1],,,,
{8}3,3,5,5,1,1,7,7,
{8},1/6,1/6,,7b-4[8:1]/8b-3[8:1],,,,
{8}2h[4:1],1,1,,7h[4:1],8,8,,
{8}3h[4:1],4,4,,6h[4:1],5,5,,
{1}2<3[2:1],
{8}7/8,,3,1/2,,6,2/7,2/7,
{4},4/5,1/8,2b/7b,
{8}7,7,7/8,,2,2,1/2,,
{8}8,1,8,1,2h[4:1]/7h[4:1],,,,
{8}6,6,5/6,,3,3,3/4,,
{8}5,4,5,4,3h[4:1]/6h[4:1],,,,
{8}1/8,,3b/6b,,7,7,4,4,
{8},3/8,3/8,,1-6[8:1]/2-5[8:1],,,,
{8}3,4,3,,6,5,6,,
{1}7^4[4:1]/8^3[4:1],
{2}1-3[8:1]/5-7[8:1],4-2[8:1]/8-6[8:1],
{2}1-3[8:1]/5-7[8:1],4-2[8:1]/8-6[8:1],
{8}1/8,1/8,1/8,,4/5,4/5,4/5,,
{1}2-8[4:1]/3-5[4:1],
(180.0){1},
{1}8^5[4:3],
{1}1^4[4:3],
{1}6^1[4:3],
{1}3^8[4:3],
{1}5^8[4:3],
{1}4^1[4:3],
{1}7^4[4:3],
{1}2^5[4:3],
{1}7q4[4:3],
{1}1q6[4:3],
{1}8p3[4:3],
{1}2p5[4:3],
{1}6p1[4:3],
{1}4p7[4:3],
{1}5q2[4:3],
{1}3q8[4:3],
{1}6p4[4:3],
{1}2p8[4:3],
{1}5q7[4:3],
{1}1q3[4:3],
{1}7p6[4:3],
{1}2q3[4:3],
{1}8bw4[4:7],,,
(190.0){1},
{1}2h[4:7]/7h[4:3],
{1}6h[4:7],
{1}3h[4:5],
{2}5h[4:3],4h[4:1],
{1}7h[4:3]/8h[4:3],
{1}1h[4:3]/2h[4:3],
{1}4h[4:3]/5h[4:3],
{4}3b/6b,2b/7b,1b-4[8:1]/8b-5[8:1],,
{8}7,8,7/8,,2,1,1/2,,
{8}6,3,7,2,1h[4:1]/8h[4:1],,,,
{8}6,5,5/6,,3,4,3/4,,
{8}7,2,6,3,4h[4:1]/5h[4:1],,,,
{8}1/8,,3b/6b,,2,2,5,5,
{8},1/6,1/6,,7-4[8:1]/8-3[8:1],,,,
{8}6,5,6,,3,4,3,,
{1}1^6[4:1]/2^5[4:1],
{2}4-2[8:1]/8-6[8:1],1-3[8:1]/5-7[8:1],
{2}4-2[8:1]/8-6[8:1],1-3[8:1]/5-7[8:1],
{8}1/8,1/8,1/8,,4/5,4/5,4/5,,
{1}6-4[4:1]/7-1[4:1],
{8}7/8,1/6,2/5,,1/2,3/8,4/7,,
{1}8V64[4:1]*V24[4:1],
{8}6,6,7,7,8-4[8:1],,,,
{8}3,3,2,2,1-5[8:1],,,,
{8}6,6,7,7,8-4[8:1],,,,
{8}3,3,2,2,1-5[8:1],,,,
{8}7,7,1,1,8-3[8:1]*-4[8:1],,,,
{8}2,2,8,8,1-5[8:1]*-6[8:1],,,,
{8}7,7,1,1,8-3[8:1]*-4[8:1],,,,
{4}1/2,7/8,{8}4b-1[8:1]/5b-8[8:1],,,,
E
MASTER
(190.0){16}3,,3,4,5,,5,,3/6,,5,,4,,4/5,,
{16},,6,5,4,,3,4,5,,5,,6,,3,,
{16}6,,6,5,4,,4,,3/6,,4,,5,,4/5,,
{16},,3,4,5,,6,5,4,,4,,2/7,,,,
{8}3-8[8:1],3,7-4[8:1],7,2-5[8:1],2,6-1[8:1],6,
{8}3-8[8:1],3,7-4[8:1],7,2,2,3/8,3/8,
{8}6-1[8:1],6,2-5[8:1],2,7-4[8:1],7,3-8[8:1],3,
{8}6-1[8:1],6,2-5[8:1],2,7,,1/6,,
{8}6-1[8:1],6,2-5[8:1],2,7-4[8:1],7,3-8[8:1],3,
{8}6-1[8:1],6,2-5[8:1],2,7,7,1/6,1/6,
{8}3-8[8:1],3,7-4[8:1],7,2-5[8:1],2,6-1[8:1],6,
{8}3-8[8:1],3,7-4[8:1],7,2,,3b/8b,,
{8}7/8,,1/5,,7,5,4,3h[4:1],
{16},,4,,2/5,,6qq4[4:1]*pp8[4:1],5,6,,,,,,,,
{8}1/2,,4/8,,2,4,5,6h[4:1],
{16},,5,,4/7,,3qq1[4:1]*pp5[4:1],4,3,,,,,,,,
{8}7/8,,1/6,,2,4,5,6h[4:1],
{8},5,4,3,2/5,,7-4[8:1],,
{8}2-5[8:1],,8-4[8:1],,1-5[8:1],,8,8,
{8},2/7,2-6[8:1]/7-3[8:1],,{2}2<5[1:1]/7>4[1:1],{1},
{16},,3,4,5,,6,5,4,,4,,3,,6,,
{16}3,,3,4,5,,5,,3/6,,5,,4,,4/5,,
{16},,6,5,4,,3,4,5,,5,,2/7,,,,
{16}2/5,,3,4,3,,5/6,,4/7,,6,5,6,,3/4,,
{16}2/5,,3,4,3,,5/6,,7,,5,,4,,2,,
{16}4/7,,6,5,6,,3/4,,2/5,,3,4,3,,4/5,,
{16}1/6,,7,8,7,,4/5,,3,,1,,8,,6,,
{8}2/7h[8:15],2,3,3,2,2,1,1,
{8}2,3,4,3,2,1,2,3,
{16}2/5,,3,4,3,,5/6,,4/7,,6,5,6,,4/5,,
{16}3/8,,2,1,2,,4/5,,2b/7b,,,,4/5,,,,
{8}3-7[8:1],3,6-2[8:1],6,3-8[8:1],3,6-1[8:1],6,
{8}4-8[8:1],4,5,5,2-5[8:1]/7-4[8:1],,2b/7b,,
{8}6-2[8:1],6,3-7[8:1],3,6-1[8:1],6,3-8[8:1],3,
{8}5,5,1pp4[8:3]/8qq5[8:3],,,,,,
{8}3^6[8:1],3,7p3[8:1],7,2q6[8:1],2,7pp2[4:1],7,
{8},,,,2q7[8:1]/3^6[8:1],2/3,,,
{8}5h[8:1],4h[8:1],7h[8:1],2h[8:1],6h[8:1],3h[8:1],8h[8:1],1,
{8}1h[8:1]/2h[8:1],,3/8,7h[8:1]/8h[8:1],,1/6,4/5,3/6,
{4}4/5,1/8,2b-5[8:1]/7b-4[8:1],,
{8}2/6,3/7,4V25[4:1]/8V61[4:1],,,,,4/8,
{16},,6,5,6qq5[4:1]*pp7[4:1],,4/7,,,,,,,,3,4,
{8}2^5[8:1],2,6p2[8:1],6,1q5[8:1],1,6pp1[4:1],6,
{4}1,,1-5[8:1]/8-4[8:1],1/8,
{8}3/7,2/6,1V38[4:1]/5V74[4:1],,,,,1/5,
{16},,3,4,3-1[4:1]*-7[4:1],,2/5,,,,,,,,6,5,
{8}7^4[8:1],7,3q7[8:1],3,8p4[8:1],8,3qq8[4:1],3,
{16}8,,,,,,,,2/7,,,,,,6,5,
{4}7^2[4:1],2^5[4:1],5^8[4:1],8-4[4:1],
{4}4^1[4:1],1w5[4:1],,,
{8}2-4[8:1]*-8[8:1],2,2,,1/8,4-1[8:1]/5-8[8:1],3/6,,
{8},2,2w6[4:1],,2b,,,,
(180.0){12}3,{995}5,,,,,,,,,,,,,,,,,,,,,,,,,,,,,,,,,,,,,,,,,,,,,,,,,,,,,,,,,,,,,,,,,,,,,,,,,,,,,,,,,,,{12}4,6,{995}5,,,,,,,,,,,,,,,,,,,,,,,,,,,,,,,,,,,,,,,,,,,,,,,,,,,,,,,,,,,,,,,,,,,,,,,,,,,,,,,,,,,{12}6,4,{995}5,,,,,,,,,,,,,,,,,,,,,,,,,,,,,,,,,,,,,,,,,,,,,,,,,,,,,,,,,,,,,,,,,,,,,,,,,,,,,,,,,,,{12}3,4/5,,,
{6}8<4[2:1],2,2,4q8[2:1],2,2,
{6}8<4[2:1],2,2,4,2,2,
{6}1>5[2:1],7,7,5p1[2:1],7,7,
{6}1>5[2:1],7,7,5,7,7,
{6}8<4[2:1],2,2,4q8[2:1],2,2,
{6}8<4[2:1],2,2,4,2,2,
{12}3,{995}3,,,,,,,,,,,,,,,,,,,,,,,,,,,,,,,,,,,,,,,,,,,,,,,,,,,,,,,,,,,,,,,,,,,,,,,,,,,,,,,,,,,{12}4,4,{995}5,,,,,,,,,,,,,,,,,,,,,,,,,,,,,,,,,,,,,,,,,,,,,,,,,,,,,,,,,,,,,,,,,,,,,,,,,,,,,,,,,,,{12}5,4,{995}4,,,,,,,,,,,,,,,,,,,,,,,,,,,,,,,,,,,,,,,,,,,,,,,,,,,,,,,,,,,,,,,,,,,,,,,,,,,,,,,,,,,{12}5,5,{995}6,,,,,,,,,,,,,,,,,,,,,,,,,,,,,,,,,,,,,,,,,,,,,,,,,,,,,,,,,,,,,,,,,,,,,,,,,,,,,,,,,,,{12}6,
{12}5,{995}5,,,,,,,,,,,,,,,,,,,,,,,,,,,,,,,,,,,,,,,,,,,,,,,,,,,,,,,,,,,,,,,,,,,,,,,,,,,,,,,,,,,{12}4,4,{995}3,,,,,,,,,,,,,,,,,,,,,,,,,,,,,,,,,,,,,,,,,,,,,,,,,,,,,,,,,,,,,,,,,,,,,,,,,,,,,,,,,,,{12}3,4,{995}4,,,,,,,,,,,,,,,,,,,,,,,,,,,,,,,,,,,,,,,,,,,,,,,,,,,,,,,,,,,,,,,,,,,,,,,,,,,,,,,,,,,{12}5,5,6,,
{6}2>6[2:1],8,8,6p2[2:1],8,8,
{6}2>6[2:1],8,8,6,8,8,
{6}7<3[2:1],1,1,3q7[2:1],1,1,
{6}7<3[2:1],1,1,3,1,1,
{6}2>6[2:1],8,8,6p2[2:1],8,8,
{6}2>6[2:1],8,8,6,8,8,
{6}8<4[2:1],1,1,3,1,1,
{12}5,{995}4,,,,,,,,,,,,,,,,,,,,,,,,,,,,,,,,,,,,,,,,,,,,,,,,,,,,,,,,,,,,,,,,,,,,,,,,,,,,,,,,,,,{12}5,4,{995}5,,,,,,,,,,,,,,,,,,,,,,,,,,,,,,,,,,,,,,,,,,,,,,,,,,,,,,,,,,,,,,,,,,,,,,,,,,,,,,,,,,,{12}5,3,{995}3,,,,,,,,,,,,,,,,,,,,,,,,,,,,,,,,,,,,,,,,,,,,,,,,,,,,,,,,,,,,,,,,,,,,,,,,,,,,,,,,,,,{12}4,4,{995}5,,,,,,,,,,,,,,,,,,,,,,,,,,,,,,,,,,,,,,,,,,,,,,,,,,,,,,,,,,,,,,,,,,,,,,,,,,,,,,,,,,,{12}5,
{6}6<2[2:1],4,4,2p6[2:1],4,4,
{6}6<2[2:1],4,4,2,4,4,
{6}3>7[2:1],5,5,7q3[2:1],5,5,
{6}3>7[2:1],5,5,7,5,5,
{12}4/5,,3,4,2,,4/5,,6,5,7,,
{12}6,{995}6,,,,,,,,,,,,,,,,,,,,,,,,,,,,,,,,,,,,,,,,,,,,,,,,,,,,,,,,,,,,,,,,,,,,,,,,,,,,,,,,,,,{12}3,3,{995}5,,,,,,,,,,,,,,,,,,,,,,,,,,,,,,,,,,,,,,,,,,,,,,,,,,,,,,,,,,,,,,,,,,,,,,,,,,,,,,,,,,,{12}5,4,{995}4,,,,,,,,,,,,,,,,,,,,,,,,,,,,,,,,,,,,,,,,,,,,,,,,,,,,,,,,,,,,,,,,,,,,,,,,,,,,,,,,,,,{12}5,5,{995}4,,,,,,,,,,,,,,,,,,,,,,,,,,,,,,,,,,,,,,,,,,,,,,,,,,,,,,,,,,,,,,,,,,,,,,,,,,,,,,,,,,,{12}4,
{1}5b<4[4:9],,,
(190.0){1},
{1}4h[4:7],
{1}5h[4:7],
{1}2h[4:5],
{2}7h[4:3],5h[4:5],
{1}4h[4:7],
{1}6h[4:5],
{4}3h[2:1],,5h[4:1],4,
{8}1/8,,4/5,4/5,2b-5[8:1]/7b-4[8:1],,,,
{8}3/7,2/6,1V36[4:1]/5V72[4:1],,,,,1/5,
{16},,3,4,3qq2[4:1]*pp4[4:1],,2/5,,,,,,,,6,5,
{8}7^4[8:1],7,3q7[8:1],3,8p4[8:1],8,3qq8[4:1],3,
{2}7s3[4:1],1-5[8:1],
{8}2/6,3/7,4V27[4:1]/8V63[4:1],,,,,4/8,
{16},,6,5,6-2[4:1]*-8[4:1],,4/7,,,,,,,,3,4,
{8}2^5[8:1],2,6p2[8:1],6,1q5[8:1],1,6pp1[4:1],6,
{16}1,,,,,,,,2/7,,,,,,3,4,
{4}2^7[4:1],7^4[4:1],4^1[4:1],1-5[4:1],
{4}5^8[4:1],8w4[4:1],,,
{8}7-1[8:1]*-5[8:1],7,7,,1/8,4-8[8:1]/5-1[8:1],3/6,,
{8},7,7w3[4:1],,7b,,,1/8,
{4}8h[1:1]/1-6[8:1],1-4[8:1],1-5[8:1],1V73[8:1],
{4},2w6[4:1],2b,,
{16}4/5,,7,8,6-1[8:1],,6,,2-5[8:1],,2,,8,,8,,
{16}4/5,,2,1,3-8[8:1],,3,,7-4[8:1],,7,,1,,1,,
{16}4/5,,7,8,6-1[8:1],,6,,2-5[8:1],,2,,8,,8,,
{16}4/5,,2,1,3-8[8:1],,3,,7,,7,,3/6,,,,
{16}4/5,,2,1,3^8[8:1],,3,,7^4[8:1],,7,,1,,1,,
{16}4/5,,7,8,6^1[8:1],,6,,2^5[8:1],,2,,8,,8,,
{16}4/5,,2,1,3^8[8:1],,3,,7^4[8:1],,7,,1,,1,,
{16}4/5,,7w3[4:1],8,6,,,,,,,,1b/5b,
E
Re:MASTER
最終更新:2023年01月03日 12:28