EASY
BASIC
(102.0){1},,,,,
{2}1,1,
{2}2,2,
{2}3,3,
{2}4,4,
{2}5,5,
{2}6,6,
{2}7,7,
{2}8,8b,
{1}1-4[2:1],
{1}5-8[2:1],
{2}1,1,
{4}8,8,8,,
{1}7-3[2:1],
{1}2-6[2:1],
{2}7,8,
{4}1,1,1b,,
{4}2,2,2,,
{4}1,1,1,,
{4}8,8,8,,
{4}7,7,7,,
{4}6,6,6,,
{4}5,5,5,,
{2}4,5,
{1}4/5,
{4},3,,3,
{4},4,,4,
{4},6,,6,
{4},5,,5,
{4},3/4,,3/4,
{4},1/2,,1/2,
{4},7/8,,7/8,
{4},5/6,,5/6,
{4},7/8,,7/8,
{4},1/2,,1/2,
{4},1/8,,1/8,
{1}1/8,
{4},3,,3/4,
{4},3,,3/4,
{4},6,,5/6,
{4},6,,5/6,
{4},3,,3,
{4},4,,4,
{4},5,,5,
{4},6-2[2:1],,,,
E
ADVANCED
(102.0){1},
{2}1,8,
{4}3,4,5,6,
{2}8,1,
{4}6,5,4,3,
{2}1/2,1/2,
{4}1,3,5,7,
{2}7/8,7/8,
{4}8,6,4,2,
{2}1/2,7/8,
{4}3,3/4,6,5/6,
{2}2/3,6/7,
{4}7,8,1,2b,
{1}1-4[4:1],
{1}5-8[4:1],
{2}1-3[16:3],8-4[16:3],
{2}1-5[16:3],8-6[16:3],
{1}1h[1:1],
{1}8h[1:1],
{2}2h[2:1],1h[2:1],
{4}8h[2:1],,7h[4:1],1b,
{4}2,1,8,7,
{4}6,5,4,3,
{4}7,8,1,2,
{4}3,4,5,6,
{2}3/4,5/6,
{4}2/3,3/4,4/5,5/6,
{2}6/7,7/8,
{2}8-6[16:3],1-5[16:3],
{4}6h[4:3],,5,5,
{4}3h[4:3],,4,4,
{4}7h[4:3],,5,5,
{4}1h[2:1],,8,2/7,
{2}1b/5b,2/6,
{2}3/7,4/8,
{4}4/8,3/7,2/6,1/5,
{2}2^7[16:3],6^3[16:3],
{4}1,1/2,8,7/8,
{4}7/8,5/6,3/4,1/2,
{2}2^5[16:3],7^4[16:3],
{1}2b,
{4}2/3,3/4,6/7,5/6,
{4}2/3,1/8,6/7,4/5,
{4}1/3,2/4,6/8,5/7,
{4}1/5,2/6,3/7,4/8,
{1}1s5[2:1],
{1}8z4[2:1],
{1}2s6[2:1],
{4}7z3[2:1],,,,
E
EXPERT
(102.0){1},
{2}1-4[8:1],7-2[8:1],
{2}3-6[8:1],8-5[8:1],
{2}2-6[8:1],8-4[8:1],
{2}1-5[8:1],7-3[8:1],
{4}3/4,{399}5/6,,,,,,,,,,,,,,,,,,,,,,,,,,,,,,,,,,,,,,,,,,,,,,,,,,,,,,,,,,,,,,,,,,,,,,,,,,,,,,,,{8}7,8,{601}1,,,,,,,,,,,,,,,,,,,,,,,,,,,,,,,,,,,,,,,,,,,,,,,,,,,,,,,,,,,,,,,,,,,,,,,,,,,,,,,,,,,,,,,,,,,,,,,,,,,,,,,,,,,,,,,,,,,,,,,,,,,,,,,,,,,,,,,,,,,,,,,,,,,,,,,,,,,,,,,,,,,,,,,,,,,,,,,,,,,,
{4}5/6,{399}3/4,,,,,,,,,,,,,,,,,,,,,,,,,,,,,,,,,,,,,,,,,,,,,,,,,,,,,,,,,,,,,,,,,,,,,,,,,,,,,,,,{8}2,1,{601}8,,,,,,,,,,,,,,,,,,,,,,,,,,,,,,,,,,,,,,,,,,,,,,,,,,,,,,,,,,,,,,,,,,,,,,,,,,,,,,,,,,,,,,,,,,,,,,,,,,,,,,,,,,,,,,,,,,,,,,,,,,,,,,,,,,,,,,,,,,,,,,,,,,,,,,,,,,,,,,,,,,,,,,,,,,,,,,,,,,,,
{4}1/2,{399}3/8,,,,,,,,,,,,,,,,,,,,,,,,,,,,,,,,,,,,,,,,,,,,,,,,,,,,,,,,,,,,,,,,,,,,,,,,,,,,,,,,{8}4,7,{601}5,,,,,,,,,,,,,,,,,,,,,,,,,,,,,,,,,,,,,,,,,,,,,,,,,,,,,,,,,,,,,,,,,,,,,,,,,,,,,,,,,,,,,,,,,,,,,,,,,,,,,,,,,,,,,,,,,,,,,,,,,,,,,,,,,,,,,,,,,,,,,,,,,,,,,,,,,,,,,,,,,,,,,,,,,,,,,,,,,,,,
{4}6h[4:1],5h[4:1],4h[4:1],3h[4:1],
{4}1,{399}7/8,,,,,,,,,,,,,,,,,,,,,,,,,,,,,,,,,,,,,,,,,,,,,,,,,,,,,,,,,,,,,,,,,,,,,,,,,,,,,,,,{8}6,5,{601}4,,,,,,,,,,,,,,,,,,,,,,,,,,,,,,,,,,,,,,,,,,,,,,,,,,,,,,,,,,,,,,,,,,,,,,,,,,,,,,,,,,,,,,,,,,,,,,,,,,,,,,,,,,,,,,,,,,,,,,,,,,,,,,,,,,,,,,,,,,,,,,,,,,,,,,,,,,,,,,,,,,,,,,,,,,,,,,,,,,,,
{4}7/8,{399}1/2,,,,,,,,,,,,,,,,,,,,,,,,,,,,,,,,,,,,,,,,,,,,,,,,,,,,,,,,,,,,,,,,,,,,,,,,,,,,,,,,{8}3,4,{601}5,,,,,,,,,,,,,,,,,,,,,,,,,,,,,,,,,,,,,,,,,,,,,,,,,,,,,,,,,,,,,,,,,,,,,,,,,,,,,,,,,,,,,,,,,,,,,,,,,,,,,,,,,,,,,,,,,,,,,,,,,,,,,,,,,,,,,,,,,,,,,,,,,,,,,,,,,,,,,,,,,,,,,,,,,,,,,,,,,,,,
{4}3/4,{399}2/5,,,,,,,,,,,,,,,,,,,,,,,,,,,,,,,,,,,,,,,,,,,,,,,,,,,,,,,,,,,,,,,,,,,,,,,,,,,,,,,,{8}1,6,{601}8,,,,,,,,,,,,,,,,,,,,,,,,,,,,,,,,,,,,,,,,,,,,,,,,,,,,,,,,,,,,,,,,,,,,,,,,,,,,,,,,,,,,,,,,,,,,,,,,,,,,,,,,,,,,,,,,,,,,,,,,,,,,,,,,,,,,,,,,,,,,,,,,,,,,,,,,,,,,,,,,,,,,,,,,,,,,,,,,,,,,
{4}7h[4:1],5h[4:1],4h[4:1],2h[4:1],
{399}8,,,,,,,,,,,,,,,,,,,,,,,,,,,,,,,,,,,,,,,,,,,,,,,,,,,,,,,,,,,,,,,,,,,,,,,,,,,,,,,,{149}3/7,,,,,,,,,,,,,,,,,,,,,,,,,,{8}4^1[8:1]/6^1[8:1],,,,,
{399}1/7,,,,,,,,,,,,,,,,,,,,,,,,,,,,,,,,,,,,,,,,,,,,,,,,,,,,,,,,,,,,,,,,,,,,,,,,,,,,,,,,{149}2/6,,,,,,,,,,,,,,,,,,,,,,,,,,{8}3^8[8:1]/5^8[8:1],,,,,
{2}7-3[8:1],2-6[8:1],
{4}7/8,1/2,3/4,5/6,
{399}2/8,,,,,,,,,,,,,,,,,,,,,,,,,,,,,,,,,,,,,,,,,,,,,,,,,,,,,,,,,,,,,,,,,,,,,,,,,,,,,,,,{149}1/7,,,,,,,,,,,,,,,,,,,,,,,,,,{8}6-3[8:1]/8-5[8:1],,,,,
{399}4/6,,,,,,,,,,,,,,,,,,,,,,,,,,,,,,,,,,,,,,,,,,,,,,,,,,,,,,,,,,,,,,,,,,,,,,,,,,,,,,,,{149}3/5,,,,,,,,,,,,,,,,,,,,,,,,,,{8}2-7[8:1]/4-1[8:1],,,,,
{8}6h[2000:401],{649}8,,,,,,,,,,,,,,,,,,,,,,,,,,,,,,,,,,,,,,,,,,,,,,,,,{601}8,,,,,,,,,,,,,,,,,,,,,,,,,,,,,,,,,,,,,,,,,,,,,,,,,,,,,,,,,,,,,,,,,,,,,,,,,,,,,,,,,,,,,,,,,,,,,,,,,,,,,,,,,,,,,,,,,,,,,,,,,,,,,,,,,,,,,,,,,,,,,,,,,,,,,,,,,,,,,,,,,,,,,,,,,,,,,,,,,,,,{8}3h[2000:401],{649}1,,,,,,,,,,,,,,,,,,,,,,,,,,,,,,,,,,,,,,,,,,,,,,,,,{601}1,,,,,,,,,,,,,,,,,,,,,,,,,,,,,,,,,,,,,,,,,,,,,,,,,,,,,,,,,,,,,,,,,,,,,,,,,,,,,,,,,,,,,,,,,,,,,,,,,,,,,,,,,,,,,,,,,,,,,,,,,,,,,,,,,,,,,,,,,,,,,,,,,,,,,,,,,,,,,,,,,,,,,,,,,,,,,,,,,,,,
{8}2/7,2/7,{649}4,,,,,,,,,,,,,,,,,,,,,,,,,,,,,,,,,,,,,,,,,,,,,,,,,{8}5,{149}3/6,,,,,,,,,,,,,,,,,,,,,,,,,,{8}1b/8b,1b/8b,,
{8}2/7,,{649}3,,,,,,,,,,,,,,,,,,,,,,,,,,,,,,,,,,,,,,,,,,,,,,,,,{8}4,{601}5h[2000:599],,,,,,,,,,,,,,,,,,,,,,,,,,,,,,,,,,,,,,,,,,,,,,,,,,,,,,,,,,,,,,,,,,,,,,,,,,,,,,,,,,,,,,,,,,,,,,,,,,,,,,,,,,,,,,,,,,,,,,,,,,,,,,,,,,,,,,,,,,,,,,,,,,,,,,,,,,,,,,,,,,,,,,,,,,,,,,,,,,,,{649}6,,,,,,,,,,,,,,,,,,,,,,,,,,,,,,,,,,,,,,,,,,,,,,,,,{8}7,{101}8h[2000:599],,,,,
{4},{649}1,,,,,,,,,,,,,,,,,,,,,,,,,,,,,,,,,,,,,,,,,,,,,,,,,{8}2,{149}3/4,,,,,,,,,,,,,,,,,,,,,,,,,,{8}5,4,5,
{8}3/6,,{649}2,,,,,,,,,,,,,,,,,,,,,,,,,,,,,,,,,,,,,,,,,,,,,,,,,{8}1,{601}8h[2000:599],,,,,,,,,,,,,,,,,,,,,,,,,,,,,,,,,,,,,,,,,,,,,,,,,,,,,,,,,,,,,,,,,,,,,,,,,,,,,,,,,,,,,,,,,,,,,,,,,,,,,,,,,,,,,,,,,,,,,,,,,,,,,,,,,,,,,,,,,,,,,,,,,,,,,,,,,,,,,,,,,,,,,,,,,,,,,,,,,,,,{649}7,,,,,,,,,,,,,,,,,,,,,,,,,,,,,,,,,,,,,,,,,,,,,,,,,{8}6,{101}4/5,,,,,
{8},3,{649}5,,,,,,,,,,,,,,,,,,,,,,,,,,,,,,,,,,,,,,,,,,,,,,,,,{8}4,{149}6h[2000:599],,,,,,,,,,,,,,,,,,,,,,,,,,{8}2,2,,
{8}1/8,,{649}3,,,,,,,,,,,,,,,,,,,,,,,,,,,,,,,,,,,,,,,,,,,,,,,,,{8}4,{601}2/5,,,,,,,,,,,,,,,,,,,,,,,,,,,,,,,,,,,,,,,,,,,,,,,,,,,,,,,,,,,,,,,,,,,,,,,,,,,,,,,,,,,,,,,,,,,,,,,,,,,,,,,,,,,,,,,,,,,,,,,,,,,,,,,,,,,,,,,,,,,,,,,,,,,,,,,,,,,,,,,,,,,,,,,,,,,,,,,,,,,,{649}6,,,,,,,,,,,,,,,,,,,,,,,,,,,,,,,,,,,,,,,,,,,,,,,,,{8}5,{101}4/7,,,,,
{8},3/6,{649}4,,,,,,,,,,,,,,,,,,,,,,,,,,,,,,,,,,,,,,,,,,,,,,,,,{8}5,{149}1/8,,,,,,,,,,,,,,,,,,,,,,,,,,{8}2/7,3/6,4/5,
{8},6,{649}8,,,,,,,,,,,,,,,,,,,,,,,,,,,,,,,,,,,,,,,,,,,,,,,,,{8}1,{149}3,,,,,,,,,,,,,,,,,,,,,,,,,,{8}6,5,4,
{8}3,2,{649}1,,,,,,,,,,,,,,,,,,,,,,,,,,,,,,,,,,,,,,,,,,,,,,,,,{8}8,{899}7p4[4:1],,,,,,,,,,,,,,,,,,,,,,,,,,,,,,,,,,,,,,,,,,,,,,,,,,,,,,,,,,,,,,,,,,,,,,,,,,,,,,,,,,,,,,,,,,,,,,,,,,,,,,,,,,,,,,,,,,,,,,,,,,,,,,,,,,,,,,,,,,,,,,,,,,,,,,,,,,,,,,,,,,,,,,,,,,,,,,,,,,,,,,,,,,,,,,,,,,,,,,,,,,,,,,,,,,,,,,,,,,,,,,,,,,,,,,,,,,,,,,,,,,,,,,,,,,,,,,,,,,,,,,,,,,,,,,,,,,,,,,,,,,,,,,,,,,,,,,,,,,,,,,,,,,,,,,,,,,,,,,,,,,,,,,,,,,,,,,,,,,,,,,,,,,,,,,,,,,,,,,,,,,,,,,,,,,,,,,,,,,,,,,,,,,,,,,,,,,,,,,,,,,,,,,,,,,,,,,,,,,,,,,,,,,,,,,,,,,,,,,,,,,,,,,,,,,,,,,,,,,,,,,,,,,,,,,,,,,,,,,,,,,,,,,,,,,,,,,
{4}2h[4:1],{399}1,,,,,,,,,,,,,,,,,,,,,,,,,,,,,,,,,,,,,,,,,,,,,,,,,,,,,,,,,,,,,,,,,,,,,,,,,,,,,,,,{8}5/6,{149}5/6,,,,,,,,,,,,,,,,,,,,,,,,,,{4}3/4,
{4}7h[4:1],{399}8,,,,,,,,,,,,,,,,,,,,,,,,,,,,,,,,,,,,,,,,,,,,,,,,,,,,,,,,,,,,,,,,,,,,,,,,,,,,,,,,{8}3/4,{149}3/4,,,,,,,,,,,,,,,,,,,,,,,,,,{4}5/6,
{4}3h[4:1],{399}4,,,,,,,,,,,,,,,,,,,,,,,,,,,,,,,,,,,,,,,,,,,,,,,,,,,,,,,,,,,,,,,,,,,,,,,,,,,,,,,,{8}7/8,{149}7/8,,,,,,,,,,,,,,,,,,,,,,,,,,{4}1/2,
{4}6h[4:1],{399}5,,,,,,,,,,,,,,,,,,,,,,,,,,,,,,,,,,,,,,,,,,,,,,,,,,,,,,,,,,,,,,,,,,,,,,,,,,,,,,,,{8}1/2,{149}1/2,,,,,,,,,,,,,,,,,,,,,,,,,,{4}7/8,
{2}1^4[8:1]/8q5[8:1],4q1[8:1]/5^8[8:1],
{8}1^4[8:1]/8^5[8:1],,,,3,6,2,7,
{2}1p4[8:1]/8^5[8:1],4^1[8:1]/5p8[8:1],
{8}1^4[8:1]/8^5[8:1],,,,6,3,7,2,
{2}1^4[8:1]/5p8[8:1],4q1[8:1]/8^5[8:1],
{8}1^4[8:1]/5^8[8:1],,,,3/7,2/6,1/5,4/8,
{2}3^6[8:1]/7^2[8:1],2^7[8:1]/6^3[8:1],
{8}1b/2b,7b/8b,,,1-5[8:1]/8-4[8:1],,,,
{8}3h[4:1],,{399}4,,,,,,,,,,,,,,,,,,,,,,,,,,,,,,,,,,,,,,,,,,,,,,,,,,,,,,,,,,,,,,,,,,,,,,,,,,,,,,,,{8}2/5,{149}3/6,,,,,,,,,,,,,,,,,,,,,,,,,,{4}1/8,
{4}6h[4:1],{399}5,,,,,,,,,,,,,,,,,,,,,,,,,,,,,,,,,,,,,,,,,,,,,,,,,,,,,,,,,,,,,,,,,,,,,,,,,,,,,,,,{8}4/7,{149}3/6,,,,,,,,,,,,,,,,,,,,,,,,,,{4}1/8,
{4}2h[4:1],{399}1,,,,,,,,,,,,,,,,,,,,,,,,,,,,,,,,,,,,,,,,,,,,,,,,,,,,,,,,,,,,,,,,,,,,,,,,,,,,,,,,{8}3/8,{149}2/7,,,,,,,,,,,,,,,,,,,,,,,,,,{4}4/5,
{4}7h[4:1],{399}8,,,,,,,,,,,,,,,,,,,,,,,,,,,,,,,,,,,,,,,,,,,,,,,,,,,,,,,,,,,,,,,,,,,,,,,,,,,,,,,,{8}1/6,{149}2/7,,,,,,,,,,,,,,,,,,,,,,,,,,{4}4/5,
{2}3h[2:1],4h[2:1],
{2}5h[2:1],6h[2:1],
{2}1h[2:1],8h[2:1],
{8}2h[4:1],,7h[4:1],,3,6,4,5,
E
MASTER
(102.0){1},
{4}2/7,{399}3/4,,,,,,,,,,,,,,,,,,,,,,,,,,,,,,,,,,,,,,,,,,,,,,,,,,,,,,,,,,,,,,,,,,,,,,,,,,,,,,,,{8}5/6,{101}3,,,,,{8}4,5/7,4/6,
{8}3/5,{649}2,,,,,,,,,,,,,,,,,,,,,,,,,,,,,,,,,,,,,,,,,,,,,,,,,{8}1,8,{149}7h[2000:849],,,,,,,,,,,,,,,,,,,,,,,,,,{8}6,5,3,
{8}4/5,,{399}2/7,,,,,,,,,,,,,,,,,,,,,,,,,,,,,,,,,,,,,,,,,,,,,,,,,,,,,,,,,,,,,,,,,,,,,,,,,,,,,,,,{8}1/8,{101}2,,,,,{8}7,1/8,2/7,
{8}3/6,{649}1,,,,,,,,,,,,,,,,,,,,,,,,,,,,,,,,,,,,,,,,,,,,,,,,,{8}8,5/6,3/4,{101}1,,,,,{8}1,{649}6,,,,,,,,,,,,,,,,,,,,,,,,,,,,,,,,,,,,,,,,,,,,,,,,,{101}5,,,,,{8}6,
{8}1h[4:1],,{399}2,,,,,,,,,,,,,,,,,,,,,,,,,,,,,,,,,,,,,,,,,,,,,,,,,,,,,,,,,,,,,,,,,,,,,,,,,,,,,,,,{8}7,{101}7,,,,,{8}8,2/7,{649}8,,,,,,,,,,,,,,,,,,,,,,,,,,,,,,,,,,,,,,,,,,,,,,,,,{101}1,,,,,
{4}8h[4:1],{399}7,,,,,,,,,,,,,,,,,,,,,,,,,,,,,,,,,,,,,,,,,,,,,,,,,,,,,,,,,,,,,,,,,,,,,,,,,,,,,,,,{8}2,{101}2,,,,,{8}1,{649}4,,,,,,,,,,,,,,,,,,,,,,,,,,,,,,,,,,,,,,,,,,,,,,,,,{101}5,,,,,{8}4,
{8}2/7,,{399}1/5,,,,,,,,,,,,,,,,,,,,,,,,,,,,,,,,,,,,,,,,,,,,,,,,,,,,,,,,,,,,,,,,,,,,,,,,,,,,,,,,{8}6,{101}2,,,,,{8}6,3/7,2/6,
{8}1/5,{649}8,,,,,,,,,,,,,,,,,,,,,,,,,,,,,,,,,,,,,,,,,,,,,,,,,{8}1h[4:1],2,3,{101}6,,,,,{8}3,{649}2/7,,,,,,,,,,,,,,,,,,,,,,,,,,,,,,,,,,,,,,,,,,,,,,,,,{101}1,,,,,{8}8,
{8}1/2,,{399}3/8,,,,,,,,,,,,,,,,,,,,,,,,,,,,,,,,,,,,,,,,,,,,,,,,,,,,,,,,,,,,,,,,,,,,,,,,,,,,,,,,{101}6,,,,,{649}5,,,,,,,,,,,,,,,,,,,,,,,,,,,,,,,,,,,,,,,,,,,,,,,,,{101}6,,,,,{8}5,4/7,{649}3,,,,,,,,,,,,,,,,,,,,,,,,,,,,,,,,,,,,,,,,,,,,,,,,,{101}4,,,,,
{4}2/5,{399}4/7,,,,,,,,,,,,,,,,,,,,,,,,,,,,,,,,,,,,,,,,,,,,,,,,,,,,,,,,,,,,,,,,,,,,,,,,,,,,,,,,{101}2,,,,,{649}1,,,,,,,,,,,,,,,,,,,,,,,,,,,,,,,,,,,,,,,,,,,,,,,,,{101}2,,,,,{8}1,{649}7,,,,,,,,,,,,,,,,,,,,,,,,,,,,,,,,,,,,,,,,,,,,,,,,,{101}8,,,,,{8}7,
{8}7/8,,{399}1/6,,,,,,,,,,,,,,,,,,,,,,,,,,,,,,,,,,,,,,,,,,,,,,,,,,,,,,,,,,,,,,,,,,,,,,,,,,,,,,,,{101}3,,,,,{649}4,,,,,,,,,,,,,,,,,,,,,,,,,,,,,,,,,,,,,,,,,,,,,,,,,{101}3,,,,,{8}4,2/5,3/6,
{8}4/7,{649}6,,,,,,,,,,,,,,,,,,,,,,,,,,,,,,,,,,,,,,,,,,,,,,,,,{149}5,,,,,,,,,,,,,,,,,,,,,,,,,,{649}3,,,,,,,,,,,,,,,,,,,,,,,,,,,,,,,,,,,,,,,,,,,,,,,,,{8}4,{101}1,,,,,{8}8,{649}2/7,,,,,,,,,,,,,,,,,,,,,,,,,,,,,,,,,,,,,,,,,,,,,,,,,{101}8,,,,,{8}1b,
{399}2h[2000:401],,,,,,,,,,,,,,,,,,,,,,,,,,,,,,,,,,,,,,,,,,,,,,,,,,,,,,,,,,,,,,,,,,,,,,,,,,,,,,,,{149}1h[2000:349],,,,,,,,,,,,,,,,,,,,,,,,,,{8}8h[8:3],7-3[16:1],,,,
{399}4h[2000:401],,,,,,,,,,,,,,,,,,,,,,,,,,,,,,,,,,,,,,,,,,,,,,,,,,,,,,,,,,,,,,,,,,,,,,,,,,,,,,,,{149}5h[2000:349],,,,,,,,,,,,,,,,,,,,,,,,,,{8}6h[8:3],7-3[16:1],,,,
{4}2h[2:1],,7h[4:1],2-6[16:1],
{4}1-5[16:1],8-4[16:1],7-3[16:1],,
{399}1h[2000:401],,,,,,,,,,,,,,,,,,,,,,,,,,,,,,,,,,,,,,,,,,,,,,,,,,,,,,,,,,,,,,,,,,,,,,,,,,,,,,,,{149}3h[2000:349],,,,,,,,,,,,,,,,,,,,,,,,,,{8}5,7<1[8:1],,,,
{399}8h[2000:401],,,,,,,,,,,,,,,,,,,,,,,,,,,,,,,,,,,,,,,,,,,,,,,,,,,,,,,,,,,,,,,,,,,,,,,,,,,,,,,,{149}6h[2000:349],,,,,,,,,,,,,,,,,,,,,,,,,,{8}4,2>8[8:1],,,,
{4}2h[4:1],1h[4:1],8h[4:1],7h[4:1],
{8}3,4,{649}6,,,,,,,,,,,,,,,,,,,,,,,,,,,,,,,,,,,,,,,,,,,,,,,,,{8}5,3/6,{101}1,,,,,{8}8,2b/7b,,
{4}7q3[4:1],3q7[4:1],7^2[4:1],2q6[4:1],
{4}6q2[4:1],2^5[4:1],5<1[8:1],,
{4}2p6[4:1],6p2[4:1],2^7[4:1],7p3[4:1],
{4}3p7[4:1],7^4[4:1],4>8[8:1],,
{4}6h[4:1],{649}2,,,,,,,,,,,,,,,,,,,,,,,,,,,,,,,,,,,,,,,,,,,,,,,,,{8}6,{601}3/7,,,,,,,,,,,,,,,,,,,,,,,,,,,,,,,,,,,,,,,,,,,,,,,,,,,,,,,,,,,,,,,,,,,,,,,,,,,,,,,,,,,,,,,,,,,,,,,,,,,,,,,,,,,,,,,,,,,,,,,,,,,,,,,,,,,,,,,,,,,,,,,,,,,,,,,,,,,,,,,,,,,,,,,,,,,,,,,,,,,,{649}2,,,,,,,,,,,,,,,,,,,,,,,,,,,,,,,,,,,,,,,,,,,,,,,,,{8}6,{101}1/5,,,,,
{8},2/6,{649}3/7,,,,,,,,,,,,,,,,,,,,,,,,,,,,,,,,,,,,,,,,,,,,,,,,,{8}3/7,{149}1b/5b,,,,,,,,,,,,,,,,,,,,,,,,,,{8}2b/6b,3b/7b,4b/8b,
{2}5q2[8:1]/6^1[8:1],1q6[8:1]/2^5[8:1],
{8}5/6,7/8,1/2,3/4,5/6,7/8,1/2,3b/4b,
{8}7h[4:1],,{399}5h[2000:401],,,,,,,,,,,,,,,,,,,,,,,,,,,,,,,,,,,,,,,,,,,,,,,,,,,,,,,,,,,,,,,,,,,,,,,,,,,,,,,,{8}3,{149}1h[2000:349],,,,,,,,,,,,,,,,,,,,,,,,,,{8}5,4,
{8}3,{649}8,,,,,,,,,,,,,,,,,,,,,,,,,,,,,,,,,,,,,,,,,,,,,,,,,{8}1h[8:1],7h[8:1],{149}5h[2000:349],,,,,,,,,,,,,,,,,,,,,,,,,,{8}4,6,7,
{8}8,,{399}2/7,,,,,,,,,,,,,,,,,,,,,,,,,,,,,,,,,,,,,,,,,,,,,,,,,,,,,,,,,,,,,,,,,,,,,,,,,,,,,,,,{8}3/8,{149}1/4,,,,,,,,,,,,,,,,,,,,,,,,,,{8}3/6,4/7,
{8}5/8,{649}7,,,,,,,,,,,,,,,,,,,,,,,,,,,,,,,,,,,,,,,,,,,,,,,,,{8}2,1/8,{601}4/5,,,,,,,,,,,,,,,,,,,,,,,,,,,,,,,,,,,,,,,,,,,,,,,,,,,,,,,,,,,,,,,,,,,,,,,,,,,,,,,,,,,,,,,,,,,,,,,,,,,,,,,,,,,,,,,,,,,,,,,,,,,,,,,,,,,,,,,,,,,,,,,,,,,,,,,,,,,,,,,,,,,,,,,,,,,,,,,,,,,,{4}1b,
{4}2^7[4:1],7^4[4:1],4^1[4:1],1p3[4:1],
{4}3p5[4:1],5p7[4:1],7p3[8:1],,
{4}7^2[4:1],2^5[4:1],5^8[4:1],8q6[4:1],
{4}6q4[4:1],4q2[4:1],2q6[8:1],,
{4}1h[4:1],{649}7,,,,,,,,,,,,,,,,,,,,,,,,,,,,,,,,,,,,,,,,,,,,,,,,,{8}3,{601}3/5,,,,,,,,,,,,,,,,,,,,,,,,,,,,,,,,,,,,,,,,,,,,,,,,,,,,,,,,,,,,,,,,,,,,,,,,,,,,,,,,,,,,,,,,,,,,,,,,,,,,,,,,,,,,,,,,,,,,,,,,,,,,,,,,,,,,,,,,,,,,,,,,,,,,,,,,,,,,,,,,,,,,,,,,,,,,,,,,,,,,{649}4,,,,,,,,,,,,,,,,,,,,,,,,,,,,,,,,,,,,,,,,,,,,,,,,,{8}8,{101}3/7,,,,,
{8},3/7,{649}6,,,,,,,,,,,,,,,,,,,,,,,,,,,,,,,,,,,,,,,,,,,,,,,,,{8}2,{149}2b/6b,,,,,,,,,,,,,,,,,,,,,,,,,,{8}3b/7b,2b/5b,4b/7b,
{8}3/4,1/2,7/8,5/6,3/4,1/2,1/8,3/6,
{8}1b/8b,1b/8b,,1,8,{649}3,,,,,,,,,,,,,,,,,,,,,,,,,,,,,,,,,,,,,,,,,,,,,,,,,{8}6,2,{101}7,,,,,
{899}1-5[8:1],,,,,,,,,,,,,,,,,,,,,,,,,,,,,,,,,,,,,,,,,,,,,,,,,,,,,,,,,,,,,,,,,,,,,,,,,,,,,,,,,,,,,,,,,,,,,,,,,,,,,,,,,,,,,,,,,,,,,,,,,,,,,,,,,,,,,,,,,,,,,,,,,,,,,,,,,,,,,,,,,,,,,,,,,,,,,,,,,,,,,,,,,,,,,,,,,,,,,,,,,,,,,,,,,,,,,,,,,,,,,,,,,,,,,,,,,,,,,,,,,,,,,,,,,,,,,,,,,,,,,,,,,,,,,,,,,,,,,,,,,,,,,,,,,,,,,,,,,,,,,,,,,,,,,,,,,,,,,,,,,,,,,,,,,,,,,,,,,,,,,,,,,,,,,,,,,,,,,,,,,,,,,,,,,,,,,,,,,,,,,,,,,,,,,,,,,,,,,,,,,,,,,{8}6,{101}5,,,,,{8}3,2,7,
{8}2,{649}3,,,,,,,,,,,,,,,,,,,,,,,,,,,,,,,,,,,,,,,,,,,,,,,,,{8}5,4/6,5/7,{101}1,,,,,{8}8,3,1,
{899}8-4[8:1],,,,,,,,,,,,,,,,,,,,,,,,,,,,,,,,,,,,,,,,,,,,,,,,,,,,,,,,,,,,,,,,,,,,,,,,,,,,,,,,,,,,,,,,,,,,,,,,,,,,,,,,,,,,,,,,,,,,,,,,,,,,,,,,,,,,,,,,,,,,,,,,,,,,,,,,,,,,,,,,,,,,,,,,,,,,,,,,,,,,,,,,,,,,,,,,,,,,,,,,,,,,,,,,,,,,,,,,,,,,,,,,,,,,,,,,,,,,,,,,,,,,,,,,,,,,,,,,,,,,,,,,,,,,,,,,,,,,,,,,,,,,,,,,,,,,,,,,,,,,,,,,,,,,,,,,,,,,,,,,,,,,,,,,,,,,,,,,,,,,,,,,,,,,,,,,,,,,,,,,,,,,,,,,,,,,,,,,,,,,,,,,,,,,,,,,,,,,,,,,,,,,,{8}3,{101}4,,,,,{8}5,7,2,
{8}7,{649}6,,,,,,,,,,,,,,,,,,,,,,,,,,,,,,,,,,,,,,,,,,,,,,,,,{8}4,3/5,2/4,{101}3,,,,,{8}6,{649}1,,,,,,,,,,,,,,,,,,,,,,,,,,,,,,,,,,,,,,,,,,,,,,,,,{101}8,,,,,{8}4,
{8}1b,,{399}2,,,,,,,,,,,,,,,,,,,,,,,,,,,,,,,,,,,,,,,,,,,,,,,,,,,,,,,,,,,,,,,,,,,,,,,,,,,,,,,,{149}3,,,,,,,,,,,,,,,,,,,,,,,,,,{8}6,5,4,
{8}2,{649}8,,,,,,,,,,,,,,,,,,,,,,,,,,,,,,,,,,,,,,,,,,,,,,,,,{8}1,7,{149}6,,,,,,,,,,,,,,,,,,,,,,,,,,{8}3,4,5,
{8}6,,{399}7,,,,,,,,,,,,,,,,,,,,,,,,,,,,,,,,,,,,,,,,,,,,,,,,,,,,,,,,,,,,,,,,,,,,,,,,,,,,,,,,{149}8,,,,,,,,,,,,,,,,,,,,,,,,,,{8}3,2,1,
{8}8,{649}1,,,,,,,,,,,,,,,,,,,,,,,,,,,,,,,,,,,,,,,,,,,,,,,,,{8}8,2,3,{101}5,,,,,{8}4,2/7,{649}8,,,,,,,,,,,,,,,,,,,,,,,,,,,,,,,,,,,,,,,,,,,,,,,,,1,
E
Re:MASTER
(102.0){1},
{8}2/5,3,4/7,{24}6,,5,,,{983}5,,,,,,,,,,,,,,,,,,,,,,,,,,,,,,,,,,,,,,,,,{8}6,4/7,6,
{8}3h[8:1],{24}4,,2/5,,,2/5,,,6,,,{983}6,,,,,,,,,,,,,,,,,,,,,,,,,,,,,,,,,,,,,,,,,{8}5,2/5,3/4,
{8}4/7,6,2/5,{24}3,,4,,,{983}4,,,,,,,,,,,,,,,,,,,,,,,,,,,,,,,,,,,,,,,,,{8}3,2/5,3,
{8}6h[8:1],{24}5,,4/7,,,4/7,,,3,,,{983}3,,,,,,,,,,,,,,,,,,,,,,,,,,,,,,,,,,,,,,,,,{8}4,4/7,,
{8}1/5,,{989}3/7,,,,,,,,,,,,,,,,,,,,,,,,,,,,,,,,,,,,,,,,,,,,,,,,,,,,,,,,,,,,,,,,,,,,,,,,,,,,,,,,,,,,,,,,,,,,,,,,,,,,,,,,,,,,,,,,,,,,,,,,,,,,,,,,,,,,,,,,,,,,,,,,,,,,,,,,,,,,,,,,,,,,,,,,,,,,,,,,,,,,,,,,,,,,,,,,,,,,,,,,,,,,,,{8}6,{983}6,,,,,,,,,,,,,,,,,,,,,,,,,,,,,,,,,,,,,,,,,{8}5,2,1/3,
{8}4/8,,{989}2/6,,,,,,,,,,,,,,,,,,,,,,,,,,,,,,,,,,,,,,,,,,,,,,,,,,,,,,,,,,,,,,,,,,,,,,,,,,,,,,,,,,,,,,,,,,,,,,,,,,,,,,,,,,,,,,,,,,,,,,,,,,,,,,,,,,,,,,,,,,,,,,,,,,,,,,,,,,,,,,,,,,,,,,,,,,,,,,,,,,,,,,,,,,,,,,,,,,,,,,,,,,,,,,{8}3,{983}3,,,,,,,,,,,,,,,,,,,,,,,,,,,,,,,,,,,,,,,,,{8}4,7,6/8,
{8}1/5,,{989}3/7,,,,,,,,,,,,,,,,,,,,,,,,,,,,,,,,,,,,,,,,,,,,,,,,,,,,,,,,,,,,,,,,,,,,,,,,,,,,,,,,,,,,,,,,,,,,,,,,,,,,,,,,,,,,,,,,,,,,,,,,,,,,,,,,,,,,,,,,,,,,,,,,,,,,,,,,,,,,,,,,,,,,,,,,,,,,,,,,,,,,,,,,,,,,,,,,,,,,,,,,,,,,,,{8}6,{983}6,,,,,,,,,,,,,,,,,,,,,,,,,,,,,,,,,,,,,,,,,{8}5,2,1/3,
{8}4/8,7,1/5,2,{12}6,{983}6,,,,,,,,,,,,,,,,,,,,,,,,,,,,,,,,,,,,,,,,,{24}5,,,3,,{983}3,,,,,,,,,,,,,,,,,,,,,,,,,,,,,,,,,,,,,,,,,{8}4,
{8}4/8,,{989}2/6,,,,,,,,,,,,,,,,,,,,,,,,,,,,,,,,,,,,,,,,,,,,,,,,,,,,,,,,,,,,,,,,,,,,,,,,,,,,,,,,,,,,,,,,,,,,,,,,,,,,,,,,,,,,,,,,,,,,,,,,,,,,,,,,,,,,,,,,,,,,,,,,,,,,,,,,,,,,,,,,,,,,,,,,,,,,,,,,,,,,,,,,,,,,,,,,,,,,,,,,,,,,,,{8}7,{983}7,,,,,,,,,,,,,,,,,,,,,,,,,,,,,,,,,,,,,,,,,{8}8,3,2/4,
{8}1/5,,{989}3/7,,,,,,,,,,,,,,,,,,,,,,,,,,,,,,,,,,,,,,,,,,,,,,,,,,,,,,,,,,,,,,,,,,,,,,,,,,,,,,,,,,,,,,,,,,,,,,,,,,,,,,,,,,,,,,,,,,,,,,,,,,,,,,,,,,,,,,,,,,,,,,,,,,,,,,,,,,,,,,,,,,,,,,,,,,,,,,,,,,,,,,,,,,,,,,,,,,,,,,,,,,,,,,{8}2,{983}2,,,,,,,,,,,,,,,,,,,,,,,,,,,,,,,,,,,,,,,,,{8}1,6,5/7,
{8}4/8,,{989}2/6,,,,,,,,,,,,,,,,,,,,,,,,,,,,,,,,,,,,,,,,,,,,,,,,,,,,,,,,,,,,,,,,,,,,,,,,,,,,,,,,,,,,,,,,,,,,,,,,,,,,,,,,,,,,,,,,,,,,,,,,,,,,,,,,,,,,,,,,,,,,,,,,,,,,,,,,,,,,,,,,,,,,,,,,,,,,,,,,,,,,,,,,,,,,,,,,,,,,,,,,,,,,,,{8}7,{983}7,,,,,,,,,,,,,,,,,,,,,,,,,,,,,,,,,,,,,,,,,{8}8,3,2/4,
{8}1/8,{24}2q7[4:1]/7v2[4:1],,2/7,,,,,,,,,,,,,,,{983}3,,,,,,,,,,,,,,,,,,,,,,,,,,,,,,,,,,,,,,,,,{12}4^7[8:1],{983}4,,,,,,,,,,,,,,,,,,,,,,,,,,,,,,,,,,,,,,,,,
{24}3,,,1,,1,,,{983}6,,,,,,,,,,,,,,,,,,,,,,,,,,,,,,,,,,,,,,,,,{12}5^2[8:1],{983}5,,,,,,,,,,,,,,,,,,,,,,,,,,,,,,,,,,,,,,,,,{24}6,,,8,,8,,,{983}3,,,,,,,,,,,,,,,,,,,,,,,,,,,,,,,,,,,,,,,,,{12}4^7[8:1],{983}4,,,,,,,,,,,,,,,,,,,,,,,,,,,,,,,,,,,,,,,,,
{24}3,,,1,,1,,,{983}6,,,,,,,,,,,,,,,,,,,,,,,,,,,,,,,,,,,,,,,,,{12}5^2[8:1],{983}5,,,,,,,,,,,,,,,,,,,,,,,,,,,,,,,,,,,,,,,,,{24}6,,,8,,8,,,{983}3,,,,,,,,,,,,,,,,,,,,,,,,,,,,,,,,,,,,,,,,,{12}4,{983}4,,,,,,,,,,,,,,,,,,,,,,,,,,,,,,,,,,,,,,,,,
{24}3,,,6,,6,,,1,,,2h[6:1],,,,1,,,8,,,7,,,
{24}2/5,,,1,,{983}8,,,,,,,,,,,,,,,,,,,,,,,,,,,,,,,,,,,,,,,,,{24}4/7,,,8,,{983}1,,,,,,,,,,,,,,,,,,,,,,,,,,,,,,,,,,,,,,,,,{24}2/5,,,1,,{983}8,,,,,,,,,,,,,,,,,,,,,,,,,,,,,,,,,,,,,,,,,{12}4/7,{983}7,,,,,,,,,,,,,,,,,,,,,,,,,,,,,,,,,,,,,,,,,{12}8^3[8:1],{983}8,,,,,,,,,,,,,,,,,,,,,,,,,,,,,,,,,,,,,,,,,
{24}7,,,5,,5,,,{983}2,,,,,,,,,,,,,,,,,,,,,,,,,,,,,,,,,,,,,,,,,{12}1^6[8:1],{983}1,,,,,,,,,,,,,,,,,,,,,,,,,,,,,,,,,,,,,,,,,{24}2,,,4,,4,,,{983}7,,,,,,,,,,,,,,,,,,,,,,,,,,,,,,,,,,,,,,,,,{12}8^3[8:1],{983}8,,,,,,,,,,,,,,,,,,,,,,,,,,,,,,,,,,,,,,,,,
{24}7,,,5,,5,,,{983}2,,,,,,,,,,,,,,,,,,,,,,,,,,,,,,,,,,,,,,,,,{12}1^6[8:1],{983}1,,,,,,,,,,,,,,,,,,,,,,,,,,,,,,,,,,,,,,,,,{24}2,,,4,,4,,,{983}7,,,,,,,,,,,,,,,,,,,,,,,,,,,,,,,,,,,,,,,,,{12}8,{983}8,,,,,,,,,,,,,,,,,,,,,,,,,,,,,,,,,,,,,,,,,
{24}7,,,5,,4/6,,,{983}2,,,,,,,,,,,,,,,,,,,,,,,,,,,,,,,,,,,,,,,,,{12}1,{983}1,,,,,,,,,,,,,,,,,,,,,,,,,,,,,,,,,,,,,,,,,{24}2,,,4,,3/5,,,{983}7,,,,,,,,,,,,,,,,,,,,,,,,,,,,,,,,,,,,,,,,,{12}8,{983}8,,,,,,,,,,,,,,,,,,,,,,,,,,,,,,,,,,,,,,,,,
{8}7,4/5,{24}4/5,,1/8,,,3/6,,,{983}5,,,,,,,,,,,,,,,,,,,,,,,,,,,,,,,,,,,,,,,,,{8}4,2b/7b,,
{8}8/7^4[8:1],3/4p7[12:1],,,1/2^5[8:1],6/5q2[12:1],,,
{8}8/7^4[8:1],3/4p7[12:1],,,1/2,3/8,4/7,5/6,
{8}2/1^6[8:1],5/6p1[12:1],,,7/8^3[8:1],4/3q8[12:1],,,
{8}2/1^6[8:1],5/6p1[12:1],,,{12}7/8,{983}3,,,,,,,,,,,,,,,,,,,,,,,,,,,,,,,,,,,,,,,,,{8}4,2/5,,
{8}5/7^2[8:1],4,{24}3,,3,,,4/2^7[8:1],,,{983}5,,,,,,,,,,,,,,,,,,,,,,,,,,,,,,,,,,,,,,,,,{24}5,,,6,,6h[8:1],,,{983}8,,,,,,,,,,,,,,,,,,,,,,,,,,,,,,,,,,,,,,,,,
{24},,,3/4,,,5,,5,,,4/7,,,,1/2,,,3/8,,,4/7,,,
{24}5/6,,,4/7,,,2/5,,3h[8:1],,,4,,,,6,,,5/7,,,3,,,
{24}2/4,,,7,,,1/8,,1/8,,,3/6,,,{983}4,,,,,,,,,,,,,,,,,,,,,,,,,,,,,,,,,,,,,,,,,{8}5,2b/7b,,
{8}1/6,7,3/8,{24}2,,1,,,{983}1,,,,,,,,,,,,,,,,,,,,,,,,,,,,,,,,,,,,,,,,,{8}2,3/8,2,
{8}7h[8:1],{24}8,,1/6,,,1/6,,,2,,,{983}2,,,,,,,,,,,,,,,,,,,,,,,,,,,,,,,,,,,,,,,,,{8}1,1/6,7/8,
{8}3/8,2,1/6,{24}7,,8,,,{983}8,,,,,,,,,,,,,,,,,,,,,,,,,,,,,,,,,,,,,,,,,{8}7,1/6,7,
{8}2h[8:1],{24}1,,3/8,,,3/8,,,7,,,{983}7,,,,,,,,,,,,,,,,,,,,,,,,,,,,,,,,,,,,,,,,,{8}8,3b/8b,,
{8}1q6[8:1]/2^5[8:1],5q2[16:1]/6^1[16:1],,,7^4[8:1]/8p3[8:1],3^8[16:1]/4p7[16:1],,,
{8}1q6[8:1]/2^5[8:1],5q2[16:1]/6^1[16:1],,,7/8,1/6,2/5,3/4,
{8}7^4[8:1]/8p3[8:1],3^8[16:1]/4p7[16:1],,,1q6[8:1]/2^5[8:1],5q2[16:1]/6^1[16:1],,,
{8}7^4[8:1]/8p3[8:1],3^8[16:1]/4p7[16:1],,,{12}1/2,{983}6,,,,,,,,,,,,,,,,,,,,,,,,,,,,,,,,,,,,,,,,,{8}5,4/7,,
{8}4/2^7[8:1],5,{24}6,,6,,,5/7^2[8:1],,,{983}4,,,,,,,,,,,,,,,,,,,,,,,,,,,,,,,,,,,,,,,,,{24}4,,,3,,3h[8:1],,,{983}1,,,,,,,,,,,,,,,,,,,,,,,,,,,,,,,,,,,,,,,,,
{24},,,5/6,,,4,,4,,,2/5,,,,7/8,,,1/6,,,2/5,,,
{8}3^8[16:1],4,7p3[16:1],5,2q6[16:1],1,7,8,
{8}2bp7[8:3]/7bV52[8:3],2b/7b,,,,,1/8,,
{8}2/5,3,5/7,{24}6,,5,,,{983}5,,,,,,,,,,,,,,,,,,,,,,,,,,,,,,,,,,,,,,,,,{8}6,4/7,6,
{8}3h[8:1],{24}4,,2/5,,,2/5,,,6,,,{983}6,,,,,,,,,,,,,,,,,,,,,,,,,,,,,,,,,,,,,,,,,{8}5,2/5,3/4,
{8}4/7,6,2/4,{24}3,,4,,,{983}4,,,,,,,,,,,,,,,,,,,,,,,,,,,,,,,,,,,,,,,,,{8}3,2/5,3,
{8}6h[8:1],{24}5,,4/7,,,4/7,,,3,,,{983}3,,,,,,,,,,,,,,,,,,,,,,,,,,,,,,,,,,,,,,,,,{8}4,4/7,,
{4}3>7[4:1],4,5>1[4:1],6,
{4}7<3[4:1],8,1<5[4:1],2,
{4}3<7[4:1],2,1>5[4:1],8,
{4}7>3[4:1],6,5,4/5,
E
最終更新:2023年01月03日 12:36